<?xml version="1.0" standalone="no"?>
<!DOCTYPE svg PUBLIC "-//W3C//DTD SVG 1.1//EN" "http://www.w3.org/Graphics/SVG/1.1/DTD/svg11.dtd" >
<svg xmlns="http://www.w3.org/2000/svg">
<metadata>Generated by IcoMoon</metadata>
<defs>
<font id="icomoon" horiz-adv-x="1024">
<font-face units-per-em="1024" ascent="960" descent="-64" />
<missing-glyph horiz-adv-x="1024" />
<glyph unicode="&#x20;" horiz-adv-x="512" d="" />
<glyph unicode="&#xe900;" glyph-name="eye-hide-line" horiz-adv-x="1075" d="M724.362 386.545c8.018 19.645 12.088 40.463 12.006 61.44 0 46.576-20.183 91.244-56.115 124.178-35.927 32.934-84.654 51.437-135.465 51.437-22.605-0.025-45.018-3.752-66.188-11.008l44.961-42.496c6.835 1.002 13.747 1.516 20.669 1.536 35.927 0.069 70.42-12.896 95.959-36.063 25.533-23.167 40.028-54.654 40.325-87.585-0.026-6.344-0.584-12.677-1.674-18.944l45.522-42.496zM978.55 460c-94.116 159.488-259.164 256.001-441.81 256.001-49.73-0.108-99.124-7.452-146.34-21.761l44.963-41.472c33.118 7.846 67.171 11.888 101.377 12.033 157.23 0 300.216-80.384 385.398-215.808-31.247-50.242-72.668-94.555-122.045-130.559l39.66-36.352c57.139 42.255 104.596 94.459 139.633 153.6l7.265 12.288-8.1 12.030zM156.939 760.856l124.556-114.176c-78.729-46.467-143.074-110.74-186.833-186.624l-7.261-12.032 7.261-12.286c94.115-159.488 259.165-256 441.807-256 71.291 0.010 141.655 14.802 205.824 43.264l139.638-128 48.876 38.4-726.111 665.598-47.756-38.144zM429.23 511.256l185.718-170.238c-20.987-11.909-45.143-18.284-69.821-18.432-17.93 0-35.684 3.246-52.24 9.559-16.556 6.318-31.586 15.57-44.227 27.228s-22.641 25.492-29.427 40.704c-6.785 15.217-10.222 31.508-10.111 47.947 0.314 22.36 7.266 44.219 20.107 63.232zM388.735 548.376c-26.128-33.777-38.374-74.939-34.571-116.197 3.804-41.262 23.412-79.954 55.352-109.235 31.941-29.276 74.153-47.252 119.165-50.739 45.010-3.487 89.912 7.741 126.761 31.693l44.682-40.96c-51.727-20.27-107.397-30.72-163.656-30.72-157.229 0-300.216 80.384-385.394 215.806 40.877 66.35 99.748 121.902 170.915 161.28l66.746-60.928z" />
<glyph unicode="&#xe901;" glyph-name="comment" d="M928.29 212.962c22.114 45.862 32.96 96.337 31.646 147.23-1.31 50.897-14.75 100.745-39.198 145.404s-59.2 82.84-101.367 111.371c-42.163 28.532-90.53 46.59-141.077 52.675-16.819 39.106-41.276 74.462-71.927 103.999-30.656 29.537-66.893 52.662-106.594 68.019-39.706 15.357-82.071 22.638-124.623 21.417s-84.432-10.92-123.188-28.529c-38.756-17.609-73.61-42.773-102.519-74.019s-51.295-67.947-65.844-107.953c-14.549-40.006-20.97-82.512-18.886-125.028s12.63-84.194 31.020-122.586l-29.080-98.842c-3.251-11.034-3.469-22.737-0.629-33.886s8.631-21.325 16.765-29.457c8.134-8.132 18.31-13.926 29.457-16.764 11.148-2.842 22.854-2.624 33.888 0.627l98.84 29.082c31.737-15.249 65.763-25.182 100.72-29.402 16.983-39.791 41.859-75.725 73.124-105.63 31.267-29.909 68.271-53.163 108.779-68.361 40.503-15.198 83.674-22.025 126.895-20.066 43.221 1.954 85.594 12.659 124.561 31.458l98.842-29.082c11.029-3.247 22.729-3.465 33.873-0.623 11.14 2.837 21.312 8.623 29.449 16.751 8.132 8.128 13.922 18.3 16.768 29.44 2.842 11.14 2.633 22.839-0.61 33.873l-29.082 98.88zM248.012 322.001c-3.058-0.004-6.1-0.435-9.040-1.28l-110.96-32.721 32.68 111.040c2.324 8.026 1.42 16.636-2.52 24-28.948 54.14-37.477 116.876-24.033 176.776s47.965 112.975 97.271 149.548c49.306 36.574 110.114 54.212 171.338 49.698s118.789-30.879 162.198-74.288c43.409-43.409 69.773-100.973 74.287-162.197s-13.124-122.031-49.698-171.337-89.647-83.827-149.551-97.271c-59.898-13.444-122.635-4.915-176.771 24.034-4.655 2.577-9.879 3.951-15.2 3.998zM863.172 207.083l32.841-111.083-111.040 32.683c-8.026 2.325-16.636 1.421-24-2.522-58.927-31.462-127.812-38.669-191.979-20.079-64.162 18.59-118.524 61.508-151.503 119.599 43.816 4.574 86.214 18.15 124.533 39.885 38.319 21.73 71.735 51.149 98.15 86.404 26.411 35.255 45.257 75.588 55.347 118.468 10.091 42.884 11.209 87.389 3.29 130.723 38.174-8.998 73.771-26.649 104.043-51.588 30.272-24.94 54.409-56.501 70.549-92.247 16.137-35.75 23.846-74.726 22.528-113.929-1.314-39.198-11.622-77.572-30.118-112.158-3.985-7.407-4.89-16.085-2.522-24.158h-0.119z" />
<glyph unicode="&#xe902;" glyph-name="calendar" d="M832 832h-96v32c0 8.487-3.371 16.626-9.374 22.627-5.999 6.001-14.14 9.373-22.626 9.373s-16.627-3.372-22.626-9.373c-6.003-6.001-9.374-14.141-9.374-22.627v-32h-320v32c0 8.487-3.372 16.626-9.373 22.627s-14.141 9.373-22.627 9.373c-8.487 0-16.626-3.372-22.627-9.373s-9.373-14.141-9.373-22.627v-32h-96c-16.974 0-33.253-6.743-45.255-18.745s-18.745-28.281-18.745-45.255v-640c0-16.973 6.743-33.254 18.745-45.257s28.281-18.743 45.255-18.743h640c16.973 0 33.254 6.741 45.257 18.743s18.743 28.284 18.743 45.257v640c0 16.974-6.741 33.253-18.743 45.255s-28.284 18.745-45.257 18.745zM288 768v-32c0-8.487 3.372-16.626 9.373-22.627s14.141-9.373 22.627-9.373c8.487 0 16.626 3.372 22.627 9.373s9.373 14.141 9.373 22.627v32h320v-32c0-8.487 3.371-16.626 9.374-22.627 5.999-6.001 14.14-9.373 22.626-9.373s16.627 3.372 22.626 9.373c6.003 6.001 9.374 14.141 9.374 22.627v32h96v-128h-640v128h96zM832 128h-640v448h640v-448z" />
<glyph unicode="&#xe903;" glyph-name="user" d="M923.706 111.891c-60.918 105.318-154.8 180.842-264.358 216.64 54.192 32.262 96.298 81.421 119.846 139.93 23.552 58.506 27.245 123.126 10.515 183.936s-52.96 114.447-103.123 152.673c-50.163 38.227-111.491 58.93-174.56 58.93s-124.394-20.703-174.557-58.93c-50.165-38.227-86.395-91.863-103.125-152.673s-13.036-125.43 10.514-183.936c23.55-58.509 65.655-107.667 119.849-139.93-109.561-35.76-203.441-111.28-264.361-216.64-2.234-3.642-3.716-7.696-4.358-11.92s-0.432-8.534 0.619-12.678c1.051-4.141 2.92-8.032 5.499-11.44s5.813-6.262 9.513-8.4c3.7-2.138 7.791-3.514 12.031-4.045 4.24-0.528 8.543-0.205 12.656 0.954s7.952 3.13 11.291 5.798c3.339 2.666 6.109 5.974 8.148 9.731 75.36 130.24 208.561 208 356.279 208 147.722 0 280.922-77.76 356.282-208 2.038-3.757 4.81-7.066 8.147-9.731 3.341-2.669 7.178-4.64 11.29-5.798 4.115-1.158 8.419-1.482 12.659-0.954 4.24 0.531 8.33 1.907 12.029 4.045 3.702 2.138 6.938 4.992 9.514 8.4 2.579 3.408 4.448 7.299 5.501 11.44 1.050 4.144 1.261 8.454 0.618 12.678s-2.125 8.278-4.358 11.92zM288.027 575.891c0 44.304 13.137 87.611 37.749 124.448 24.614 36.836 59.6 65.547 100.528 82.501 40.931 16.954 85.971 21.39 129.424 12.747 43.45-8.643 83.363-29.977 114.691-61.304 31.325-31.327 52.659-71.24 61.302-114.693 8.643-43.45 4.208-88.49-12.746-129.421s-45.664-75.914-82.502-100.528c-36.835-24.614-80.144-37.75-124.448-37.75-59.389 0.064-116.326 23.683-158.32 65.677-41.995 41.997-65.616 98.934-65.679 158.323z" />
<glyph unicode="&#xe904;" glyph-name="modave" horiz-adv-x="1331" d="M665.021-21.084c-51.046 0-97.331 11.679-138.86 35.041-40.663 23.357-72.675 55.368-96.034 96.031s-35.040 87.383-35.040 140.16v417.881c0 15.574-3.893 29.849-11.68 42.826s-18.169 23.36-31.146 31.146c-12.978 7.786-27.253 11.68-42.826 11.68s-29.849-3.893-42.826-11.68c-12.113-7.786-22.062-18.169-29.849-31.146s-11.68-27.253-11.68-42.826v-674.839h-185.58v652.776c0 50.181 11.247 95.602 33.742 136.266s54.073 73.107 94.737 97.332c40.663 25.090 87.815 37.635 141.456 37.635 54.506 0 102.091-12.545 142.754-37.635 40.663-24.225 72.242-56.669 94.739-97.332 22.492-40.664 33.741-86.085 33.741-136.266v-417.881c0-15.57 3.891-29.85 11.679-42.824 7.788-12.979 17.736-23.363 29.85-31.15 12.979-7.782 27.254-11.679 42.824-11.679 15.575 0 29.85 3.896 42.829 11.679 12.979 7.788 23.357 18.171 31.145 31.15 7.788 12.974 11.679 27.254 11.679 42.824v417.881c0 50.181 11.249 95.602 33.746 136.266 22.492 40.663 54.072 73.107 94.735 97.332 41.528 25.090 89.114 37.635 142.756 37.635 54.502 0 101.658-12.545 141.455-37.635 40.663-24.225 72.243-56.669 94.735-97.332 22.497-40.664 33.741-86.085 33.741-136.266v-652.776h-185.58v674.839c0 15.574-3.891 29.849-11.679 42.826-6.922 12.978-16.87 23.36-29.85 31.146s-27.254 11.68-42.824 11.68c-15.575 0-29.85-3.893-42.829-11.68s-23.357-18.169-31.145-31.146c-7.788-12.978-11.679-27.253-11.679-42.826v-417.881c0-52.777-12.114-99.497-36.342-140.16-23.357-40.663-55.368-72.673-96.031-96.031-40.663-23.363-86.953-35.041-138.865-35.041z" />
<glyph unicode="&#xe905;" glyph-name="map-pin" d="M512 704c-31.645 0-62.579-9.384-88.891-26.965s-46.819-42.57-58.929-71.805c-12.11-29.236-15.279-61.407-9.105-92.444s21.412-59.546 43.788-81.922c22.376-22.374 50.886-37.617 81.923-43.791 31.037-6.17 63.209-3 92.445 9.108s54.226 32.614 71.803 58.928c17.582 26.312 26.967 57.246 26.967 88.891 0 42.435-16.855 83.131-46.863 113.137-30.003 30.006-70.702 46.863-113.137 46.863zM512 448c-18.987 0-37.548 5.63-53.335 16.179s-28.092 25.542-35.358 43.084c-7.266 17.542-9.167 36.844-5.463 55.466s12.847 35.728 26.273 49.154c13.426 13.426 30.532 22.569 49.154 26.273s37.923 1.803 55.464-5.463c17.541-7.266 32.538-19.57 43.085-35.358s16.179-34.348 16.179-53.335c0-25.461-10.112-49.879-28.119-67.882-18.002-18.003-42.419-28.118-67.881-28.118zM512 896c-93.324-0.106-182.795-37.225-248.785-103.215s-103.109-155.461-103.215-248.785c0-125.599 58.040-258.719 168-384.998 49.409-57.062 105.018-108.447 165.8-153.201 5.381-3.768 11.791-5.791 18.359-5.791s12.979 2.022 18.36 5.791c60.672 44.769 116.173 96.154 165.484 153.201 109.798 126.28 167.997 259.4 167.997 384.998-0.108 93.324-37.228 182.795-103.214 248.785-65.992 65.99-155.464 103.109-248.786 103.215zM512 71.997c-66.12 52.004-288 243-288 472.003 0 76.382 30.343 149.636 84.353 203.647s127.265 84.353 203.647 84.353c76.38 0 149.637-30.343 203.648-84.353s84.352-127.265 84.352-203.647c0-228.92-221.88-419.999-288-472.003z" />
<glyph unicode="&#xe906;" glyph-name="arrowClockwise" d="M960.020 736.036v-192c0-8.487-3.369-16.626-9.37-22.627-6.006-6.001-14.141-9.373-22.63-9.373h-192c-8.484 0-16.625 3.372-22.625 9.373s-9.375 14.14-9.375 22.627c0 8.487 3.374 16.626 9.375 22.627s14.141 9.373 22.625 9.373h109.599l-107.356 98.4c-44.477 44.461-101.069 74.83-162.708 87.314-61.635 12.485-125.585 6.531-183.858-17.118s-108.285-63.943-143.79-115.85c-35.505-51.907-54.928-113.125-55.843-176.007s16.719-124.639 50.699-177.559c33.98-52.915 82.799-94.648 140.359-119.982s121.309-33.147 183.284-22.461c61.972 10.685 119.424 39.398 165.176 82.545 6.17 5.837 14.403 8.98 22.892 8.745s16.532-3.835 22.369-10.004c5.832-6.17 8.98-14.403 8.745-22.892-0.241-8.489-3.835-16.532-10.004-22.369-71.142-67.471-165.514-104.98-263.562-104.76h-5.279c-62.89 0.86-124.606 17.157-179.724 47.457s-101.948 73.672-136.377 126.31c-34.429 52.634-55.401 112.922-61.074 175.565-5.673 62.638 4.128 125.712 28.54 183.677s62.69 109.047 111.467 148.754c48.778 39.708 106.562 66.826 168.274 78.972s125.466 8.947 185.651-9.315c60.186-18.263 114.964-51.030 159.524-95.421l112.998-103.2v119.2c0 8.487 3.374 16.626 9.375 22.627s14.141 9.373 22.625 9.373c8.489 0 16.625-3.372 22.63-9.373 6.001-6.001 9.37-14.14 9.37-22.627z" />
<glyph unicode="&#xe907;" glyph-name="timer" d="M512 800c-75.948 0-150.19-22.521-213.339-64.716s-112.367-102.167-141.431-172.334c-29.064-70.167-36.669-147.376-21.852-221.866 14.817-74.486 51.389-142.909 105.093-196.613s122.126-90.276 196.615-105.093c74.488-14.817 151.699-7.214 221.863 21.852 70.17 29.066 130.14 78.285 172.334 141.43 42.194 63.15 64.717 137.39 64.717 213.34-0.118 101.808-40.612 199.412-112.599 271.4s-169.595 112.483-271.401 112.6zM512 96c-63.29 0-125.158 18.77-177.782 53.929-52.624 35.164-93.639 85.14-117.859 143.611-24.22 58.476-30.557 122.813-18.21 184.889 12.347 62.074 42.824 119.093 87.577 163.846s101.771 75.23 163.845 87.577c62.074 12.347 126.413 6.010 184.889-18.21 58.47-24.22 108.447-65.235 143.611-117.859 35.159-52.623 53.929-114.492 53.929-177.782-0.097-84.838-33.838-166.18-93.829-226.171s-141.332-93.732-226.171-93.829zM694.641 598.64c2.975-2.972 5.335-6.501 6.948-10.386 1.608-3.885 2.437-8.049 2.437-12.254s-0.829-8.369-2.437-12.254c-1.613-3.885-3.973-7.414-6.948-10.386l-160-160.001c-2.975-2.975-6.502-5.33-10.388-6.938-3.886-1.613-8.049-2.437-12.252-2.437-4.205 0-8.368 0.824-12.253 2.437-3.885 1.608-7.414 3.963-10.387 6.938s-5.332 6.502-6.941 10.388c-1.609 3.886-2.437 8.049-2.437 12.252s0.828 8.366 2.437 12.252c1.609 3.886 3.967 7.414 6.941 10.388l159.999 159.999c2.975 2.975 6.502 5.336 10.388 6.946 3.881 1.61 8.049 2.439 12.252 2.439s8.371-0.829 12.252-2.439c3.886-1.61 7.414-3.971 10.388-6.946zM384 896c0 8.487 3.372 16.626 9.373 22.627s14.14 9.373 22.627 9.373h192c8.489 0 16.625-3.371 22.625-9.373 6.006-6.001 9.375-14.141 9.375-22.627s-3.369-16.626-9.375-22.627c-6.001-6.001-14.136-9.373-22.625-9.373h-192c-8.487 0-16.626 3.372-22.627 9.373s-9.373 14.14-9.373 22.627z" />
<glyph unicode="&#xe908;" glyph-name="share" d="M704.036 319.872c-21.35 0.005-42.481-4.27-62.141-12.575-19.666-8.31-37.463-20.475-52.342-35.784l-184.398 118.518c14.505 37.197 14.505 78.484 0 115.681l184.398 118.52c27.699-28.373 64.947-45.45 104.52-47.921 39.578-2.471 78.659 9.841 109.67 34.547s51.743 60.049 58.179 99.174c6.436 39.126-1.884 79.246-23.352 112.585-21.463 33.338-54.543 57.519-92.826 67.853-38.277 10.334-79.032 6.087-114.36-11.92s-62.71-48.489-76.836-85.537c-14.131-37.048-13.998-78.023 0.369-114.98l-184.401-118.52c-22.205 22.797-50.704 38.454-81.854 44.97s-63.535 3.595-93.017-8.39c-29.481-11.985-54.718-32.489-72.486-58.892s-27.257-57.504-27.257-89.328c0-31.826 9.49-62.925 27.257-89.329s43.005-46.904 72.486-58.89c29.481-11.986 61.867-14.909 93.017-8.392s59.65 22.175 81.854 44.969l184.401-118.518c-12.355-31.862-14.182-66.842-5.217-99.814 8.965-32.978 28.252-62.218 55.035-83.436 26.788-21.222 59.663-33.311 93.814-34.493 34.15-1.188 67.784 8.596 95.974 27.909s49.459 47.145 60.687 79.416c11.228 32.276 11.832 67.297 1.715 99.937s-30.413 61.184-57.928 81.454c-27.51 20.27-60.79 31.196-94.961 31.186zM704.036 831.872c18.985 0 37.545-5.63 53.335-16.179 15.785-10.548 28.088-25.542 35.354-43.083 7.27-17.542 9.17-36.844 5.463-55.466-3.702-18.622-12.846-35.727-26.271-49.154s-30.531-22.569-49.152-26.273c-18.621-3.704-37.924-1.803-55.47 5.463-17.541 7.266-32.532 19.571-43.080 35.358-10.552 15.788-16.179 34.348-16.179 53.335 0 25.461 10.112 49.879 28.119 67.882 18.002 18.003 42.419 28.118 67.881 28.118zM256.035 351.872c-18.987 0-37.548 5.632-53.335 16.179s-28.091 25.544-35.358 43.085c-7.266 17.541-9.167 36.844-5.463 55.464 3.704 18.622 12.848 35.728 26.273 49.154s30.532 22.569 49.154 26.273c18.622 3.704 37.925 1.803 55.466-5.463s32.535-19.571 43.083-35.358c10.549-15.787 16.179-34.348 16.179-53.335 0-25.462-10.115-49.879-28.118-67.881-18.003-18.007-42.421-28.119-67.882-28.119zM704.036 63.872c-18.99 0-37.55 5.632-53.335 16.179-15.79 10.547-28.093 25.544-35.359 43.085s-9.165 36.844-5.463 55.465c3.707 18.621 12.846 35.727 26.276 49.152 13.425 13.425 30.531 22.569 49.152 26.276 18.621 3.702 37.924 1.802 55.465-5.463s32.538-19.574 43.085-35.359c10.547-15.785 16.179-34.35 16.179-53.335 0-25.462-10.117-49.879-28.119-67.881-18.002-18.007-42.419-28.119-67.881-28.119z" />
<glyph unicode="&#xe909;" glyph-name="question" d="M560 240c0-9.492-2.816-18.775-8.090-26.665-5.274-7.895-12.769-14.049-21.54-17.679-8.771-3.635-18.424-4.588-27.735-2.734s-17.864 6.426-24.577 13.138c-6.713 6.712-11.284 15.263-13.136 24.576s-0.902 18.964 2.732 27.735c3.633 8.771 9.785 16.266 17.679 21.54s17.174 8.090 26.667 8.090c12.728 0 24.94-5.059 33.94-14.060s14.060-21.212 14.060-33.94zM512 672c-88.24 0-160-64.6-160-144v-16c0-8.487 3.372-16.626 9.373-22.627s14.14-9.373 22.627-9.373c8.487 0 16.627 3.372 22.628 9.373s9.372 14.14 9.372 22.627v16c0 44 43.080 80 96 80s96-36 96-80c0-44-43.080-80-96-80-8.487 0-16.626-3.369-22.627-9.375-6.001-6.001-9.373-14.136-9.373-22.625v-32c0-8.489 3.372-16.625 9.373-22.625 6.001-6.006 14.14-9.375 22.627-9.375 8.489 0 16.625 3.369 22.625 9.375 6.006 6.001 9.375 14.136 9.375 22.625v2.877c72.96 13.404 128 71.603 128 141.123 0 79.4-71.762 144-160 144zM928 448c0-82.278-24.397-162.708-70.108-231.117-45.711-68.413-110.679-121.733-186.696-153.216-76.012-31.488-159.657-39.726-240.353-23.675s-154.821 55.675-212.999 113.853c-58.179 58.179-97.799 132.301-113.85 212.997s-7.813 164.339 23.673 240.353c31.486 76.014 84.806 140.984 153.217 186.695s148.84 70.109 231.117 70.109c110.295-0.116 216.038-43.982 294.026-121.972 77.993-77.99 121.856-183.733 121.974-294.028zM864 448c0 69.619-20.644 137.675-59.32 195.561-38.682 57.886-93.655 103.003-157.972 129.645-64.323 26.642-135.097 33.613-203.379 20.031s-131.002-47.107-180.23-96.335c-49.228-49.228-82.753-111.948-96.335-180.23s-6.611-139.057 20.031-203.374c26.642-64.323 71.759-119.296 129.645-157.978 57.886-38.676 125.942-59.32 195.56-59.32 93.322 0.108 182.794 37.228 248.786 103.214 65.987 65.992 103.107 155.464 103.214 248.786z" />
<glyph unicode="&#xe90a;" glyph-name="checkCircle" d="M694.639 566.64c2.978-2.972 5.338-6.501 6.946-10.386 1.613-3.884 2.441-8.049 2.441-12.254s-0.828-8.369-2.441-12.254c-1.609-3.887-3.968-7.415-6.946-10.385l-224-224c-2.97-2.978-6.498-5.338-10.385-6.946-3.883-1.613-8.047-2.441-12.254-2.441s-8.371 0.828-12.254 2.441c-3.883 1.609-7.415 3.968-10.386 6.946l-96 96c-6.004 6.003-9.378 14.148-9.378 22.639s3.373 16.636 9.378 22.639c6.004 6.007 14.148 9.378 22.64 9.378s16.636-3.371 22.64-9.378l73.36-73.399 201.361 201.4c2.97 2.976 6.502 5.336 10.385 6.946s8.047 2.439 12.254 2.439c4.207 0 8.371-0.829 12.254-2.439 3.887-1.61 7.415-3.971 10.385-6.946zM928 448c0-82.278-24.397-162.705-70.11-231.117-45.709-68.412-110.682-121.732-186.692-153.216-76.015-31.488-159.659-39.727-240.354-23.676-80.697 16.051-154.821 55.671-213 113.852s-97.799 132.305-113.85 213.001c-16.052 80.695-7.814 164.339 23.673 240.352s84.806 140.984 153.216 186.695c68.411 45.711 148.839 70.109 231.117 70.109 110.293-0.116 216.038-43.983 294.029-121.972s121.856-183.734 121.971-294.028zM864 448c0 69.619-20.642 137.675-59.324 195.561-38.677 57.886-93.653 103.003-157.973 129.645-64.316 26.642-135.091 33.613-203.375 20.031-68.281-13.582-131.001-47.107-180.23-96.335s-82.753-111.948-96.335-180.23c-13.582-68.279-6.611-139.055 20.031-203.375s71.759-119.296 129.645-157.973c57.886-38.677 125.941-59.324 195.561-59.324 93.325 0.107 182.797 37.227 248.785 103.215s103.108 155.46 103.215 248.785z" />
<glyph unicode="&#xe90b;" glyph-name="filter" d="M160 607.999h132c7.050-27.533 23.063-51.937 45.514-69.364s50.064-26.887 78.486-26.887c28.422 0 56.035 9.459 78.486 26.887s38.465 41.831 45.515 69.364h323.999c8.489 0 16.625 3.372 22.625 9.373 6.006 6.001 9.375 14.14 9.375 22.627s-3.369 16.626-9.375 22.627c-6.001 6.001-14.136 9.373-22.625 9.373h-323.999c-7.050 27.533-23.066 51.937-45.515 69.365-22.451 17.427-50.064 26.886-78.486 26.886s-56.035-9.459-78.486-26.886c-22.452-17.427-38.465-41.831-45.514-69.365h-132c-8.487 0-16.626-3.372-22.627-9.373s-9.373-14.14-9.373-22.627c0-8.487 3.372-16.626 9.373-22.627s14.14-9.373 22.627-9.373zM416 703.999c12.658 0 25.032-3.753 35.556-10.786s18.728-17.028 23.572-28.723c4.844-11.694 6.111-24.563 3.642-36.977s-8.565-23.819-17.516-32.769c-8.95-8.951-20.354-15.046-32.769-17.516s-25.283-1.202-36.977 3.642c-11.695 4.844-21.69 13.047-28.723 23.572s-10.786 22.898-10.786 35.556c0 16.974 6.743 33.252 18.745 45.255s28.281 18.745 45.255 18.745zM864 288h-67.999c-7.050 27.53-23.066 51.937-45.517 69.366-22.451 17.423-50.063 26.885-78.484 26.885s-56.033-9.462-78.484-26.885c-22.451-17.428-38.467-41.836-45.517-69.366h-387.999c-8.487 0-16.626-3.374-22.627-9.375s-9.373-14.141-9.373-22.625c0-8.489 3.372-16.63 9.373-22.63s14.14-9.37 22.627-9.37h387.999c7.050-27.535 23.066-51.937 45.517-69.366s50.063-26.885 78.484-26.885c28.421 0 56.033 9.457 78.484 26.885s38.467 41.83 45.517 69.366h67.999c8.489 0 16.625 3.369 22.625 9.37 6.006 6.001 9.375 14.141 9.375 22.63 0 8.484-3.369 16.625-9.375 22.625-6.001 6.001-14.136 9.375-22.625 9.375zM672 192c-12.657 0-25.032 3.753-35.558 10.783-10.522 7.035-18.724 17.029-23.572 28.723-4.844 11.694-6.108 24.566-3.64 36.977 2.468 12.416 8.566 23.818 17.516 32.773 8.95 8.95 20.357 15.043 32.768 17.516 12.416 2.468 25.283 1.198 36.982-3.645 11.694-4.844 21.688-13.046 28.718-23.572 7.035-10.522 10.788-22.897 10.788-35.553 0-16.973-6.743-33.254-18.744-45.256s-28.283-18.744-45.256-18.744z" />
<glyph unicode="&#xe90c;" glyph-name="pharmacy" horiz-adv-x="1067" d="M745.335 764.76v67.24c0 16.974-6.746 33.253-18.748 45.255s-28.279 18.745-45.252 18.745h-320.002c-16.974 0-33.253-6.743-45.255-18.745s-18.745-28.281-18.745-45.255v-67.24c-36.116-7.41-68.57-27.051-91.888-55.608s-36.073-64.283-36.112-101.152v-448c0-42.436 16.857-83.132 46.863-113.135 30.006-30.007 70.703-46.865 113.137-46.865h384.002c42.432 0 83.127 16.858 113.135 46.865 30.007 30.003 46.865 70.699 46.865 113.135v448c-0.043 36.868-12.796 72.594-36.113 101.152s-55.774 48.198-91.887 55.608zM233.333 512h576.002v-256h-576.002v256zM681.335 768h-64v64h64v-64zM489.335 768v64h64v-64h-64zM425.333 832v-64h-64v64h64zM329.333 704h384.002c25.459 0 49.877-10.114 67.878-28.118 18.005-18.004 28.122-42.421 28.122-67.882v-32h-576.002v32c0 25.461 10.114 49.879 28.118 67.882s42.421 28.118 67.882 28.118zM713.335 64h-384.002c-25.461 0-49.879 10.116-67.882 28.117-18.004 18.005-28.118 42.423-28.118 67.883v32h576.002v-32c0-25.459-10.116-49.877-28.122-67.883-18.001-18.001-42.419-28.117-67.878-28.117z" />
<glyph unicode="&#xe90d;" glyph-name="cheese" horiz-adv-x="1067" d="M745.335 832c-3.119 0.008-6.221-0.45-9.203-1.36l-639.999-192c-6.589-1.978-12.366-6.026-16.472-11.546s-6.326-12.215-6.328-19.094v-96c0-8.486 3.372-16.627 9.373-22.626 6.001-6.003 14.141-9.374 22.627-9.374h32c16.736-0.077 32.783-6.677 44.733-18.394 11.95-11.721 18.861-27.635 19.267-44.365 0.143-8.388-1.405-16.713-4.553-24.486s-7.83-14.831-13.767-20.757c-6.263-6.379-13.733-11.447-21.972-14.916-8.24-3.465-17.087-5.261-26.027-5.282h-29.68c-8.487 0-16.626-3.371-22.627-9.374-6.001-5.999-9.373-14.14-9.373-22.626v-128c0-8.486 3.372-16.627 9.373-22.626 6.001-6.003 14.141-9.374 22.627-9.374h800.002c16.973 0 33.25 6.741 45.252 18.743 12.002 12.006 18.748 28.284 18.748 45.257v384.201c-0.064 59.389-23.684 116.327-65.681 158.321-41.993 41.995-98.931 65.615-158.319 65.679zM749.811 768c36.092-1.059 70.771-14.275 98.411-37.508s46.622-55.12 53.871-90.492h-578.72l426.438 128zM777.335 544c0.009-13.99-3.034-27.81-8.922-40.499-5.892-12.689-14.481-23.936-25.173-32.956-10.688-9.020-23.223-15.595-36.723-19.268-13.495-3.669-27.635-4.343-41.421-1.98-13.786 2.368-26.889 7.718-38.391 15.68-11.503 7.957-21.129 18.334-28.198 30.404-7.074 12.070-11.422 25.536-12.745 39.463s0.418 27.972 5.090 41.156h180.962c3.652-10.273 5.521-21.097 5.521-32zM361.333 224c0 25.459 10.114 49.877 28.118 67.883 18.004 18.001 42.421 28.117 67.884 28.117 25.459 0 49.877-10.116 67.878-28.117 18.005-18.005 28.122-42.423 28.122-67.883h-192.002zM905.335 224h-288c0 42.436-16.858 83.132-46.865 113.135-30.007 30.007-70.703 46.865-113.135 46.865-42.437 0-83.133-16.858-113.139-46.865-30.006-30.003-46.863-70.699-46.863-113.135h-160v64c34.426 0.713 67.212 14.852 91.36 39.398 11.912 11.942 21.295 26.163 27.591 41.813 6.295 15.646 9.373 32.405 9.049 49.267-0.801 33.468-14.621 65.301-38.523 88.742-23.902 23.437-56.001 36.632-89.477 36.779v32h387.241c-4.753-23.249-4.271-47.262 1.404-70.302s16.405-44.531 31.407-62.912c15.006-18.385 33.911-33.199 55.351-43.371 21.436-10.172 44.868-15.45 68.599-15.45 23.727 0 47.159 5.278 68.595 15.45 21.44 10.172 40.346 24.986 55.351 43.371 15.002 18.381 25.732 39.872 31.407 62.912s6.157 47.053 1.404 70.302h67.243v-352z" />
<glyph unicode="&#xe90e;" glyph-name="bird" horiz-adv-x="1067" d="M713.335 688c0-9.493-2.816-18.774-8.090-26.668-5.278-7.893-12.774-14.046-21.542-17.679-8.772-3.633-18.423-4.584-27.733-2.732-9.314 1.852-17.865 6.423-24.576 13.136-6.716 6.713-11.285 15.266-13.137 24.577s-0.905 18.962 2.731 27.733c3.631 8.771 9.783 16.268 17.677 21.542s17.173 8.090 26.671 8.090c12.727 0 24.939-5.057 33.937-14.059 9.003-9.002 14.063-21.211 14.063-33.941zM969.335 640c0-5.27-1.297-10.458-3.78-15.106s-6.080-8.609-10.462-11.534l-81.758-54.48v-78.88c-0.119-110.293-43.985-216.038-121.975-294.029s-183.731-121.856-294.025-121.971h-352.002c-12.058 0-23.87 3.405-34.076 9.826s-18.391 15.59-23.613 26.462c-5.221 10.867-7.266 22.989-5.898 34.97s6.091 23.33 13.627 32.742l0.4 0.478 337.56 405.002v78.96c0 133.68 107.159 242.92 238.842 243.56h1.161c50.982 0.015 100.646-16.206 141.79-46.311s71.633-72.532 87.049-121.129l92.919-61.92c4.382-2.924 7.979-6.886 10.462-11.534s3.78-9.836 3.78-15.106zM879.654 640l-62.72 41.84c-6.545 4.352-11.255 10.958-13.239 18.56-9.83 37.697-31.885 71.068-62.716 94.883s-68.689 36.729-107.644 36.717h-0.883c-96.559-0.48-175.117-81-175.117-179.56v-90.52c0.009-7.496-2.607-14.758-7.403-20.52l-344.599-413.4h107.6l283.762 340.48c2.658 3.324 5.952 6.080 9.69 8.111 3.738 2.035 7.846 3.302 12.079 3.729s8.508 0.004 12.578-1.242c4.066-1.242 7.846-3.29 11.115-6.012 3.273-2.722 5.965-6.071 7.923-9.847 1.958-3.78 3.145-7.91 3.49-12.151s-0.162-8.508-1.485-12.553c-1.327-4.041-3.443-7.778-6.234-10.995l-249.519-299.52h161.002c93.321 0.107 182.793 37.227 248.781 103.215 65.993 65.988 103.113 155.46 103.219 248.785v96c-0.004 5.27 1.293 10.458 3.776 15.106s6.080 8.609 10.462 11.534l56.081 37.36z" />
<glyph unicode="&#xe90f;" glyph-name="bone" horiz-adv-x="1067" d="M936.017 716.436c-23.893 28.77-58.086 47.059-95.279 50.96-2.364 21.488-9.532 42.168-20.975 60.507s-26.871 33.866-45.137 45.43c-18.261 11.564-38.895 18.866-60.369 21.367-21.47 2.501-43.23 0.136-63.663-6.921s-39.014-18.622-54.366-33.84c-15.356-15.217-27.085-33.697-34.321-54.067s-9.792-42.107-7.484-63.6c2.313-21.493 9.434-42.19 20.834-60.556 0.017-0.106 0.017-0.214 0-0.32l-281.24-281.442c0 0 0 0-0.4 0-18.366 11.405-39.063 18.522-60.556 20.834s-43.231-0.247-63.6-7.484c-20.37-7.236-38.849-18.965-54.067-34.317-15.218-15.356-26.784-33.937-33.84-54.37s-9.422-42.193-6.921-63.663c2.501-21.47 9.804-42.103 21.367-60.369s27.091-33.69 45.43-45.137c18.339-11.443 39.019-18.611 60.507-20.971 2.361-21.491 9.53-42.172 20.975-60.51s26.871-33.865 45.135-45.427c18.264-11.567 38.897-18.867 60.369-21.367s43.231-0.137 63.664 6.921c20.433 7.057 39.015 18.62 54.366 33.839 15.356 15.219 27.085 33.698 34.321 54.067s9.792 42.108 7.484 63.599c-2.313 21.495-9.434 42.193-20.834 60.557-0.009 0.107-0.009 0.213 0 0.32l281.399 281.442c0 0 0 0 0.401 0 29.060-18.304 63.706-25.621 97.685-20.625 33.975 4.992 65.054 21.965 87.616 47.859 22.566 25.889 35.132 58.992 35.439 93.335 0.303 34.342-11.678 67.663-33.779 93.949h-0.162zM885.739 571.356c-12.514-14.327-29.722-23.728-48.542-26.513-18.816-2.786-38.012 1.225-54.14 11.313-12.279 7.791-26.842 11.168-41.297 9.576s-27.934-8.059-38.221-18.336l-281.602-281.6c-10.252-10.308-16.689-23.799-18.252-38.251-1.563-14.455 1.841-29.009 9.652-41.271 6.811-10.953 10.871-23.394 11.835-36.258s-1.198-25.771-6.3-37.619c-5.102-11.849-12.994-22.285-23.003-30.426s-21.837-13.739-34.476-16.316c-12.64-2.581-25.716-2.065-38.113 1.502s-23.749 10.078-33.085 18.978c-9.337 8.9-16.383 19.93-20.537 32.141-4.154 12.215-5.293 25.25-3.32 37.999 0.717 4.57 0.435 9.237-0.826 13.687-1.261 4.446-3.471 8.572-6.478 12.083s-6.74 6.332-10.941 8.265c-4.201 1.933-8.771 2.931-13.395 2.927-1.647-0.017-3.292-0.149-4.92-0.401-12.735-1.958-25.755-0.811-37.952 3.341-12.197 4.156-23.21 11.196-32.102 20.518-8.892 9.327-15.401 20.659-18.971 33.041s-4.098 25.442-1.538 38.067c2.56 12.629 8.134 24.452 16.244 34.462 8.111 10.014 18.521 17.916 30.343 23.040s24.707 7.317 37.559 6.396c12.852-0.926 25.29-4.941 36.256-11.703 12.278-7.791 26.844-11.17 41.297-9.579s27.935 8.060 38.223 18.338l281.599 281.598c10.214 10.297 16.627 23.757 18.189 38.175 1.566 14.418-1.818 28.94-9.587 41.185-6.81 10.956-10.871 23.396-11.836 36.26s1.199 25.771 6.302 37.619c5.103 11.849 12.992 22.287 23.002 30.426s21.837 13.737 34.479 16.317c12.638 2.579 25.715 2.064 38.11-1.502 12.399-3.567 23.748-10.078 33.088-18.979 9.335-8.901 16.38-19.929 20.535-32.142s5.295-25.25 3.319-37.998c-0.777-4.979-0.371-10.071 1.19-14.863s4.237-9.146 7.799-12.709c3.563-3.564 7.919-6.235 12.706-7.797 4.791-1.562 9.886-1.97 14.865-1.191 16.29 2.636 32.994 0.17 47.829-7.060s27.068-18.871 35.029-33.327c7.957-14.455 11.251-31.019 9.429-47.42s-8.67-31.837-19.61-44.193l0.162 0.2z" />
<glyph unicode="&#xe910;" glyph-name="cat" horiz-adv-x="1067" d="M393.333 400.030c0-9.493-2.815-18.773-8.090-26.667s-12.771-14.046-21.542-17.681c-8.771-3.631-18.422-4.582-27.733-2.731s-17.864 6.426-24.577 13.137c-6.713 6.711-11.284 15.266-13.136 24.576s-0.902 18.961 2.732 27.733c3.633 8.772 9.785 16.269 17.679 21.542s17.174 8.090 26.668 8.090c12.73 0 24.94-5.056 33.941-14.059s14.059-21.21 14.059-33.941zM697.335 448.030c-9.498 0-18.778-2.816-26.671-8.090s-14.046-12.77-17.677-21.542c-3.635-8.772-4.582-18.423-2.731-27.733s6.421-17.865 13.137-24.576c6.711-6.711 15.262-11.285 24.576-13.137 9.31-1.852 18.961-0.9 27.733 2.731 8.768 3.635 16.265 9.788 21.542 17.681 5.274 7.893 8.090 17.173 8.090 26.667 0 12.732-5.060 24.939-14.063 33.941-8.998 9.003-21.21 14.059-33.937 14.059zM937.335 768.029v-352c0-211.721-186.603-384-416-384-229.402 0-416.002 172.279-416.002 384v352c0.006 12.654 3.763 25.022 10.796 35.541s17.026 18.717 28.717 23.559c11.691 4.841 24.554 6.109 36.965 3.642s23.812-8.558 32.762-17.502c0.56-0.56 1.040-1.080 1.52-1.64l69.24-79.6c70.798 44.357 152.653 67.882 236.198 67.882s165.406-23.525 236.203-67.882l68.838 79.6c0.482 0.56 0.96 1.080 1.519 1.64 8.951 8.945 20.352 15.035 32.764 17.502s25.276 1.199 36.966-3.642c11.691-4.842 21.683-13.040 28.715-23.559 7.036-10.519 10.79-22.887 10.799-35.541zM873.335 768.029l-86.242-99.2c-5.274-6.103-12.659-9.988-20.681-10.878-8.017-0.89-16.073 1.281-22.558 6.078-19.524 14.437-40.474 26.834-62.519 37v-93c0-8.487-3.375-16.626-9.374-22.627-6.003-6.001-14.14-9.373-22.626-9.373-8.491 0-16.627 3.372-22.63 9.373-5.999 6.001-9.37 14.141-9.37 22.627v115.8c-20.996 5.4-42.402 9.039-64 10.88v-126.68c0-8.487-3.375-16.626-9.374-22.627-6.003-6.001-14.14-9.373-22.626-9.373-8.491 0-16.627 3.372-22.63 9.373-5.999 6.001-9.37 14.141-9.37 22.627v126.68c-21.602-1.841-43.008-5.48-64.002-10.88v-115.8c0-8.487-3.372-16.626-9.373-22.627s-14.141-9.373-22.627-9.373c-8.487 0-16.626 3.372-22.627 9.373s-9.373 14.141-9.373 22.627v93c-22.049-10.166-42.998-22.563-62.52-37-6.471-4.812-14.52-7.002-22.537-6.135s-15.411 4.73-20.703 10.815l-86.24 99.32v-352c0-166.639 140.84-304 320.002-318.682v81.442l-54.643 54.639c-2.97 2.974-5.325 6.502-6.933 10.385-1.605 3.883-2.431 8.047-2.429 12.25s0.832 8.363 2.442 12.245c1.609 3.883 3.968 7.411 6.942 10.381 6.003 5.999 14.144 9.365 22.635 9.361 4.203 0 8.363-0.828 12.245-2.441 3.883-1.609 7.411-3.968 10.381-6.942l41.361-41.361 41.357 41.361c2.97 2.974 6.498 5.333 10.381 6.942 3.883 1.613 8.043 2.441 12.245 2.441 4.203 0.004 8.367-0.823 12.25-2.428 3.883-1.609 7.411-3.964 10.385-6.933s5.333-6.498 6.942-10.381c1.609-3.883 2.441-8.043 2.441-12.245 0.004-4.203-0.823-8.367-2.428-12.25-1.609-3.883-3.964-7.411-6.933-10.385l-54.639-54.639v-81.442c179.157 14.763 320 152 320 318.682v352z" />
<glyph unicode="&#xe911;" glyph-name="dog" horiz-adv-x="1067" d="M968.23 460.015l-65.681 352.002c-1.604 8.58-4.945 16.741-9.822 23.982s-11.183 13.406-18.53 18.12c-7.347 4.713-15.578 7.874-24.192 9.287s-17.425 1.050-25.894-1.069l-1.242-0.36-210.078-61.96h-182.801l-211.32 62.12c-8.468 2.118-17.28 2.482-25.894 1.069s-16.847-4.574-24.195-9.287c-7.347-4.713-13.652-10.88-18.528-18.12s-8.219-15.401-9.824-23.982l-65.68-351.802c-2.809-14.089-0.724-28.715 5.91-41.455 6.633-12.745 17.418-22.844 30.57-28.625 8.423-3.861 17.574-5.879 26.84-5.918 11.091 0.004 21.977 2.991 31.52 8.64v-168.64c0-42.436 16.857-83.132 46.863-113.139 30.006-30.003 70.703-46.861 113.137-46.861h384c42.436 0 83.132 16.858 113.135 46.861 30.007 30.007 46.865 70.703 46.865 113.139v168.602c9.532-5.641 20.403-8.627 31.479-8.64 9.276 0.026 18.441 2.031 26.88 5.879 13.167 5.781 23.966 15.893 30.601 28.655 6.635 12.757 8.708 27.401 5.879 41.502zM137.391 448.017l65.72 352 168.28-49.48-234-302.52zM713.391 128.017h-160v50.761l54.639 54.601c6.003 6.003 9.378 14.148 9.378 22.639s-3.375 16.636-9.378 22.639c-6.003 6.007-14.148 9.378-22.639 9.378s-16.636-3.371-22.639-9.378l-41.361-41.399-41.361 41.399c-6.003 6.007-14.148 9.378-22.639 9.378s-16.636-3.371-22.639-9.378c-6.007-6.003-9.379-14.148-9.379-22.639s3.372-16.636 9.379-22.639l54.639-54.601v-50.761h-160c-25.46 0-49.879 10.112-67.882 28.117s-28.118 42.423-28.118 67.883v243.558l207.68 268.442h160.602l207.718-268.442v-243.558c0-25.459-10.116-49.877-28.117-67.883-18.005-18.005-42.423-28.117-67.883-28.117zM905.391 448.017l-234.001 302.52 168.282 49.48 65.719-352zM425.391 400.017c0-9.493-2.815-18.773-8.089-26.667s-12.771-14.046-21.542-17.681c-8.771-3.631-18.422-4.582-27.733-2.731s-17.864 6.426-24.577 13.137c-6.713 6.711-11.284 15.266-13.137 24.576s-0.902 18.961 2.732 27.733c3.633 8.772 9.785 16.269 17.679 21.542s17.174 8.090 26.667 8.090c12.73 0 24.94-5.056 33.941-14.059s14.059-21.21 14.059-33.941zM713.391 400.017c0-9.493-2.816-18.773-8.090-26.667s-12.77-14.046-21.542-17.681c-8.772-3.631-18.423-4.582-27.733-2.731s-17.865 6.426-24.576 13.137c-6.711 6.711-11.285 15.266-13.137 24.576s-0.9 18.961 2.731 27.733c3.635 8.772 9.788 16.269 17.681 21.542s17.173 8.090 26.667 8.090c12.732 0 24.939-5.056 33.941-14.059s14.059-21.21 14.059-33.941z" />
<glyph unicode="&#xe912;" glyph-name="fish" horiz-adv-x="1067" d="M681.357 655.969c0-9.494-2.816-18.774-8.090-26.668s-12.77-14.046-21.542-17.679c-8.768-3.633-18.419-4.584-27.733-2.732-9.31 1.852-17.86 6.424-24.576 13.137-6.711 6.713-11.285 15.266-13.137 24.577s-0.9 18.962 2.731 27.733c3.635 8.771 9.788 16.268 17.681 21.542s17.173 8.090 26.667 8.090c12.732 0 24.939-5.057 33.941-14.059s14.059-21.211 14.059-33.941zM849.357 339.648c-60.318-83.358-150.118-139.52-266.799-166.959-80.32-18.88-174.161-24-280.48-15.718 6.4-47.522 15.36-97.574 26.88-150.161 1.809-8.286 0.255-16.951-4.32-24.090-4.575-7.142-11.797-12.173-20.080-13.99-2.258-0.508-4.565-0.764-6.88-0.759-7.295 0.004-14.37 2.5-20.051 7.074-5.682 4.578-9.629 10.957-11.189 18.086-13.040 59.627-22.92 116.45-29.64 170.479-53.92 6.694-110.694 16.572-170.32 29.641-4.105 0.9-7.992 2.598-11.44 5.005-3.448 2.402-6.389 5.461-8.655 8.998-4.576 7.151-6.125 15.825-4.305 24.115s6.858 15.518 14.007 20.096c7.149 4.574 15.823 6.123 24.113 4.305 52.533-11.52 102.534-20.493 150-26.923-8.36 106.24-3.12 200 15.72 280.243 27.44 116.678 83.64 206.479 166.96 266.879 56.482 40.96 157.081 89.44 313.561 88 84.757-0.84 163.319-17.32 175.241-24.32 4.672-2.753 8.563-6.649 11.319-11.32 6.997-12 23.479-90.36 24.32-175.12 0.879-86.48-13.679-210.999-87.962-313.561zM754.317 328.448c-87.053 17.276-167.019 59.998-229.769 122.761-62.75 62.767-105.457 142.743-122.711 229.8-89.92-97.040-125.68-250.92-107.040-459.441 208.601-18.718 362.56 17.003 459.562 106.88h-0.043zM859.119 785.729c-51.605 10.542-104.226 15.251-156.881 14.040-97.361-2.56-178.842-25.96-243.042-69.56 8.73-88.369 47.812-170.983 110.596-233.778 62.788-62.793 145.399-101.884 233.766-110.622 43.639 64 67.038 145.681 69.598 243.040 1.212 52.654-3.499 105.277-14.037 156.88z" />
<glyph unicode="&#xe913;" glyph-name="sm-pet" horiz-adv-x="1067" d="M437.585 441.335c14.494 0 26.249 11.75 26.249 26.249s-11.755 26.249-26.249 26.249c-14.499 0-26.252-11.75-26.252-26.249s11.753-26.249 26.252-26.249zM647.582 493.833c-14.494 0-26.249-11.75-26.249-26.249s11.755-26.249 26.249-26.249c14.498 0 28.002 11.75 28.002 26.249s-13.504 26.249-28.002 26.249zM885.666 492.092v27.994c0 37.434-6.037 74.035-17.634 108.712 43.213 28.943 70.135 78.207 70.135 131.036 0 86.846-70.656 157.5-157.5 157.5-53.453 0-103.087-26.623-132.245-69.405-33.775 11.118-69.359 16.905-105.754 16.905-36.412 0-71.974-5.803-105.685-16.954-29.004 42.812-78.016 69.454-130.567 69.454-86.845 0-157.5-70.654-157.5-157.5 0-52.771 26.861-101.979 69.99-130.937-11.501-34.692-17.489-71.326-17.489-108.811v-27.977c-67.098-50.099-106.75-126.963-106.75-208.277 0-144.742 118.542-262.498 264.25-262.498 42.721 0 84.236 10.458 121.629 30.434 14.421-18.5 36.898-30.434 62.123-30.434 25.259 0 47.761 11.968 62.182 30.515 37.534-19.806 80.354-30.515 123.315-30.515 144.742 0 262.502 117.756 262.502 262.498 0 81.941-38.997 158.775-105.003 208.26zM780.668 864.833c57.894 0 104.998-47.103 104.998-105 0-31.825-14.66-61.707-38.741-81.414-32.525 62.332-84.727 115.345-148.638 148.51 19.934 23.585 50.095 37.903 82.381 37.903zM201.417 759.833c0 57.897 47.103 105 105 105 31.505 0 61.112-14.36 80.824-38.012-63.663-33.234-115.223-86.17-147.348-148.19-23.926 19.71-38.476 49.492-38.476 81.201zM568.917 100.083c0-14.473-11.776-26.249-26.249-26.249-14.477 0-26.253 11.776-26.253 26.249v30.767c9.685 3.439 18.603 8.738 26.253 15.599 7.646-6.861 16.563-12.16 26.249-15.599v-30.767zM518.084 319.292c3.738 9.946 13.346 17.041 24.585 17.041 11.234 0 20.843-7.095 24.58-17.041l-24.58-24.585-24.585 24.585zM728.166 73.835c-37.564 0-74.927 10.18-106.748 28.86v28.156c30.549 10.833 52.497 40.013 52.497 74.231 0 14.498-11.75 26.253-26.249 26.253s-26.249-11.755-26.249-26.253c0-14.473-11.776-26.249-26.253-26.249-14.473 0-26.249 11.776-26.249 26.249v41.63l44.809 44.809c2.441 2.441 4.373 5.333 5.692 8.516 1.318 3.187 2.001 6.601 2.001 10.048 0 43.422-35.328 78.75-78.75 78.75-43.426 0-78.754-35.328-78.754-78.75 0.004-6.963 2.769-13.641 7.693-18.56l44.809-44.813v-41.63c0-14.473-11.776-26.249-26.249-26.249-14.477 0-26.253 11.776-26.253 26.249 0 14.498-11.75 26.253-26.249 26.253-14.496 0-26.249-11.755-26.249-26.253 0-34.219 21.949-63.398 52.498-74.231v-28.194c-31.859-18.889-67.863-28.821-104.998-28.821-116.76 0-211.75 94.204-211.75 209.997 0 68.369 35.555 133.001 95.109 172.894 3.582 2.402 6.518 5.645 8.548 9.451 2.031 3.802 3.092 8.047 3.092 12.361v41.549c0 161.145 129.533 292.248 288.752 292.248 160.179 0 290.496-131.103 290.496-292.248v-41.549c0-8.755 4.369-16.939 11.639-21.811 58.462-39.159 93.363-103.791 93.363-172.894 0-115.793-94.208-209.997-210.001-209.997z" />
<glyph unicode="&#xe914;" glyph-name="categories" horiz-adv-x="1280" d="M164.8 755.2h921.6c28.277 0 51.2-22.923 51.2-51.2s-22.923-51.2-51.2-51.2h-921.6c-28.277 0-51.2 22.923-51.2 51.2s22.923 51.2 51.2 51.2zM153.6 499.2h409.6c28.277 0 51.2-22.923 51.2-51.2s-22.923-51.2-51.2-51.2h-409.6c-28.277 0-51.2 22.923-51.2 51.2s22.923 51.2 51.2 51.2zM164.8 243.2h716.8c28.277 0 51.2-22.923 51.2-51.2s-22.923-51.2-51.2-51.2h-716.8c-28.277 0-51.2 22.923-51.2 51.2s22.923 51.2 51.2 51.2z" />
<glyph unicode="&#xe915;" glyph-name="security" horiz-adv-x="1067" d="M1001.327 416.009c-8.491 0-16.627-3.371-22.63-9.37-5.999-6.003-9.37-14.144-9.37-22.63v-64h-178.761l-73.242 73.361 201.361 201.4c11.994 12.001 18.731 28.273 18.731 45.24s-6.737 33.239-18.731 45.24l-224 224c-5.943 5.944-13.001 10.66-20.766 13.877s-16.090 4.873-24.495 4.873c-8.405 0-16.73-1.656-24.495-4.873s-14.822-7.933-20.766-13.877l-583.159-585c-5.581-5.598-9.378-12.723-10.912-20.48s-0.735-15.791 2.295-23.091c3.030-7.305 8.156-13.542 14.73-17.933s14.301-6.733 22.207-6.737h157.48l141.28-141.239c12.001-11.994 28.273-18.731 45.24-18.731s33.239 6.737 45.242 18.731l233.399 233.242 73.361-73.242c5.918-5.969 12.966-10.701 20.736-13.922 7.765-3.221 16.094-4.864 24.503-4.838h178.761v-64c0-8.486 3.371-16.627 9.37-22.626 6.003-6.003 14.14-9.374 22.63-9.374 8.486 0 16.623 3.371 22.626 9.374 5.999 5.999 9.374 14.14 9.374 22.626v192c0 8.486-3.375 16.627-9.374 22.63-6.003 5.999-14.14 9.37-22.626 9.37zM649.327 864.010l50.756-50.76-493.278-493.241h-99.64l542.162 544.001zM393.325 160.009l-128 128 480.002 480.001 128-128-480.002-480.001z" />
<glyph unicode="&#xe916;" glyph-name="audio" horiz-adv-x="1067" d="M746.667 874.667h-512c-16.974 0-33.253-6.743-45.255-18.745s-18.745-28.281-18.745-45.255v-704c0-16.973 6.743-33.254 18.745-45.257s28.281-18.743 45.255-18.743h512c16.973 0 33.254 6.741 45.257 18.743s18.743 28.284 18.743 45.257v704c0 16.974-6.741 33.253-18.743 45.255s-28.284 18.745-45.257 18.745zM746.667 106.667h-512v704h512v-704zM442.667 666.667c0 9.493 2.816 18.774 8.090 26.668s12.77 14.046 21.542 17.679c8.768 3.633 18.419 4.584 27.733 2.732 9.31-1.852 17.865-6.423 24.576-13.136s11.285-15.266 13.137-24.577c1.852-9.311 0.9-18.962-2.731-27.733-3.635-8.771-9.788-16.268-17.681-21.542s-17.173-8.090-26.667-8.090c-12.732 0-24.939 5.057-33.941 14.059s-14.059 21.211-14.059 33.941zM490.667 202.667c31.646 0 62.579 9.382 88.892 26.965 26.313 17.579 46.818 42.569 58.927 71.804 12.113 29.239 15.279 61.41 9.105 92.446-6.17 31.036-21.41 59.546-43.785 81.924-22.379 22.374-50.889 37.615-81.924 43.785-31.036 6.174-63.206 3.008-92.446-9.105-29.235-12.109-54.223-32.614-71.804-58.927s-26.965-57.246-26.965-88.892c0-21.013 4.139-41.818 12.179-61.231 8.041-19.409 19.826-37.047 34.684-51.908 30.006-30.003 70.701-46.861 113.137-46.861zM490.667 458.667c18.987 0 37.547-5.632 53.333-16.179s28.092-25.54 35.358-43.085c7.266-17.54 9.169-36.843 5.466-55.467-3.703-18.62-12.847-35.725-26.274-49.152s-30.532-22.571-49.152-26.274c-18.624-3.703-37.926-1.801-55.467 5.466-17.545 7.266-32.536 19.571-43.085 35.358s-16.179 34.347-16.179 53.333c0 25.459 10.114 49.877 28.118 67.883 18.005 18.001 42.423 28.117 67.882 28.117z" />
<glyph unicode="&#xe917;" glyph-name="headphones" horiz-adv-x="1067" d="M816.892 741.36c-38.276 38.665-83.81 69.399-133.982 90.444-50.176 21.044-104.009 31.985-158.417 32.196h-3.157c-110.332 0-216.143-43.828-294.159-121.844s-121.844-183.826-121.844-294.156v-224c0-25.459 10.114-49.877 28.118-67.883 18.004-18.001 42.421-28.117 67.882-28.117h64c25.461 0 49.879 10.116 67.882 28.117 18.004 18.005 28.118 42.423 28.118 67.883v160c0 25.459-10.114 49.877-28.118 67.883-18.004 18.001-42.421 28.117-67.882 28.117h-94.56c7.984 87.456 48.37 168.769 113.231 227.975s149.511 92.029 237.332 92.025h2.679c87.454-0.369 171.614-33.388 235.989-92.584s104.324-140.3 112.009-227.416h-94.677c-25.463 0-49.882-10.116-67.883-28.117-18.005-18.005-28.117-42.423-28.117-67.883v-160c0-25.459 10.112-49.877 28.117-67.883 18.001-18.001 42.419-28.117 67.883-28.117h64c25.459 0 49.877 10.116 67.878 28.117 18.005 18.005 28.122 42.423 28.122 67.883v224c0.205 54.417-10.325 108.34-30.993 158.68s-51.063 96.108-89.451 134.68zM265.333 416c8.487 0 16.626-3.371 22.627-9.374 6.001-5.999 9.373-14.14 9.373-22.626v-160c0-8.486-3.372-16.627-9.373-22.626-6.001-6.003-14.141-9.374-22.627-9.374h-64c-8.487 0-16.626 3.371-22.627 9.374-6.001 5.999-9.373 14.14-9.373 22.626v192h96zM873.335 224c0-8.486-3.375-16.627-9.374-22.626-6.003-6.003-14.14-9.374-22.626-9.374h-64c-8.491 0-16.627 3.371-22.63 9.374-5.999 5.999-9.37 14.14-9.37 22.626v160c0 8.486 3.371 16.627 9.37 22.626 6.003 6.003 14.14 9.374 22.63 9.374h96v-192z" />
<glyph unicode="&#xe918;" glyph-name="software" horiz-adv-x="1067" d="M853.333 789.333h-704c-16.974 0-33.253-6.743-45.255-18.745s-18.745-28.281-18.745-45.255v-576c0-16.973 6.743-33.254 18.745-45.257s28.281-18.743 45.255-18.743h704c16.973 0 33.254 6.741 45.257 18.743s18.743 28.284 18.743 45.257v576c0 16.974-6.741 33.253-18.743 45.255s-28.284 18.745-45.257 18.745zM853.333 149.333h-704v576h704v-576zM309.333 613.333c0-9.493-2.815-18.774-8.090-26.668s-12.771-14.046-21.542-17.679c-8.771-3.633-18.422-4.584-27.733-2.732s-17.864 6.423-24.577 13.136c-6.713 6.713-11.284 15.266-13.136 24.577s-0.902 18.962 2.732 27.733c3.633 8.771 9.785 16.268 17.679 21.542s17.174 8.090 26.668 8.090c12.73 0 24.94-5.057 33.941-14.059s14.059-21.211 14.059-33.941zM469.333 613.333c0-9.493-2.816-18.774-8.090-26.668s-12.77-14.046-21.542-17.679c-8.768-3.633-18.421-4.584-27.732-2.732s-17.864 6.423-24.577 13.136c-6.713 6.713-11.284 15.266-13.136 24.577s-0.902 18.962 2.732 27.733c3.633 8.771 9.785 16.268 17.679 21.542s17.174 8.090 26.668 8.090c12.732 0 24.939-5.057 33.941-14.059s14.059-21.211 14.059-33.941z" />
<glyph unicode="&#xe919;" glyph-name="tv" horiz-adv-x="1067" d="M821.333 832h-640c-25.461 0-49.879-10.114-67.882-28.118s-28.118-42.421-28.118-67.882v-448c0-25.459 10.114-49.877 28.118-67.883 18.004-18.001 42.421-28.117 67.882-28.117h640c25.459 0 49.877 10.116 67.883 28.117 18.001 18.005 28.117 42.423 28.117 67.883v448c0 25.461-10.116 49.879-28.117 67.882-18.005 18.004-42.423 28.118-67.883 28.118zM853.333 288c0-8.486-3.371-16.627-9.374-22.626-5.999-6.003-14.14-9.374-22.626-9.374h-640c-8.487 0-16.626 3.371-22.627 9.374-6.001 5.999-9.373 14.14-9.373 22.626v448c0 8.487 3.372 16.626 9.373 22.627s14.141 9.373 22.627 9.373h640c8.486 0 16.627-3.372 22.626-9.373 6.003-6.001 9.374-14.141 9.374-22.627v-448zM661.333 96c0-8.486-3.371-16.627-9.374-22.626-5.999-6.003-14.14-9.374-22.626-9.374h-256c-8.487 0-16.626 3.371-22.627 9.374-6.001 5.999-9.373 14.14-9.373 22.626s3.372 16.627 9.373 22.626c6.001 6.003 14.141 9.374 22.627 9.374h256c8.486 0 16.627-3.371 22.626-9.374 6.003-5.999 9.374-14.14 9.374-22.626z" />
<glyph unicode="&#xe91a;" glyph-name="smartphone" horiz-adv-x="1067" d="M693.333 960h-384c-25.461 0-49.879-10.114-67.882-28.118s-28.118-42.421-28.118-67.882v-704c0-25.459 10.114-49.877 28.118-67.883 18.004-18.001 42.421-28.117 67.882-28.117h384c25.459 0 49.877 10.116 67.883 28.117 18.001 18.005 28.117 42.423 28.117 67.883v704c0 25.461-10.116 49.879-28.117 67.882-18.005 18.003-42.423 28.118-67.883 28.118zM725.333 160c0-8.486-3.371-16.627-9.374-22.626-5.999-6.003-14.14-9.374-22.626-9.374h-384c-8.487 0-16.626 3.371-22.627 9.374-6.001 5.999-9.373 14.14-9.373 22.626v704c0 8.487 3.372 16.626 9.373 22.627s14.141 9.373 22.627 9.373h384c8.486 0 16.627-3.372 22.626-9.373 6.003-6.001 9.374-14.141 9.374-22.627v-704zM661.333 800c0-8.487-3.371-16.626-9.374-22.627-5.999-6.001-14.14-9.373-22.626-9.373h-256c-8.487 0-16.626 3.372-22.627 9.373s-9.373 14.141-9.373 22.627c0 8.487 3.372 16.626 9.373 22.627s14.141 9.373 22.627 9.373h256c8.486 0 16.627-3.372 22.626-9.373 6.003-6.001 9.374-14.141 9.374-22.627z" />
<glyph unicode="&#xe91b;" glyph-name="camera" horiz-adv-x="1067" d="M841.335 736h-110.882l-54.519 81.76c-2.923 4.378-6.878 7.968-11.516 10.452-4.642 2.484-9.822 3.785-15.083 3.788h-256.002c-5.263-0.003-10.444-1.304-15.084-3.788s-8.596-6.074-11.517-10.452l-54.56-81.76h-110.84c-25.461 0-49.879-10.114-67.882-28.118s-28.118-42.421-28.118-67.882v-448c0-25.459 10.114-49.877 28.118-67.883 18.004-18.001 42.421-28.117 67.882-28.117h640.002c25.459 0 49.877 10.116 67.878 28.117 18.005 18.005 28.122 42.423 28.122 67.883v448c0 25.461-10.116 49.879-28.122 67.882-18.001 18.004-42.419 28.118-67.878 28.118zM873.335 192c0-8.486-3.375-16.627-9.374-22.626-6.003-6.003-14.14-9.374-22.626-9.374h-640.002c-8.487 0-16.626 3.371-22.627 9.374-6.001 5.999-9.373 14.14-9.373 22.626v448c0 8.487 3.372 16.626 9.373 22.627s14.141 9.373 22.627 9.373h128c5.27-0.003 10.458 1.295 15.106 3.779s8.609 6.077 11.534 10.461l54.48 81.76h221.722l54.519-81.76c2.923-4.384 6.886-7.977 11.533-10.461s9.835-3.782 15.108-3.779h128c8.486 0 16.623-3.372 22.626-9.373 5.999-6.001 9.374-14.141 9.374-22.627v-448zM521.335 608c-34.812 0-68.838-10.322-97.783-29.661-28.943-19.339-51.501-46.827-64.822-78.985-13.321-32.162-16.806-67.55-10.016-101.687 6.791-34.142 23.553-65.502 48.167-90.116s55.973-41.378 90.115-48.166c34.142-6.793 69.53-3.307 101.687 10.014 32.162 13.321 59.648 35.878 78.989 64.823 19.337 28.941 29.662 62.972 29.662 97.779-0.055 46.66-18.615 91.396-51.61 124.393-32.994 32.995-77.73 51.555-124.39 51.607zM521.335 320c-22.153 0-43.806 6.571-62.225 18.876s-32.774 29.798-41.251 50.266c-8.477 20.463-10.695 42.982-6.374 64.708s14.988 41.681 30.652 57.348c15.663 15.663 35.618 26.329 57.344 30.65s44.245 2.103 64.713-6.374c20.463-8.477 37.956-22.83 50.266-41.249 12.305-18.419 18.876-40.073 18.876-62.225 0-29.705-11.802-58.193-32.806-79.198-21.005-21.001-49.493-32.802-79.194-32.802z" />
<glyph unicode="&#xe91c;" glyph-name="laptop" horiz-adv-x="1067" d="M992 309.333h-32v384c0 25.461-10.116 49.879-28.117 67.882-18.005 18.004-42.423 28.118-67.883 28.118h-576c-25.461 0-49.879-10.114-67.882-28.118s-28.118-42.421-28.118-67.882v-384h-32c-8.487 0-16.626-3.371-22.627-9.374-6.001-5.999-9.373-14.14-9.373-22.626v-64c0-25.459 10.114-49.877 28.118-67.883 18.004-18.001 42.421-28.117 67.882-28.117h704c25.459 0 49.877 10.116 67.883 28.117 18.001 18.005 28.117 42.423 28.117 67.883v64c0 8.486-3.371 16.627-9.374 22.626-5.999 6.003-14.14 9.374-22.626 9.374zM256 693.333c0 8.487 3.372 16.626 9.373 22.627s14.141 9.373 22.627 9.373h576c8.486 0 16.627-3.372 22.626-9.373 6.003-6.001 9.374-14.141 9.374-22.627v-384h-640v384zM960 213.333c0-8.486-3.371-16.627-9.374-22.626-5.999-6.003-14.14-9.374-22.626-9.374h-704c-8.487 0-16.626 3.371-22.627 9.374-6.001 5.999-9.373 14.14-9.373 22.626v32h768v-32zM672 629.333c0-8.487-3.371-16.626-9.374-22.627-5.999-6.001-14.14-9.373-22.626-9.373h-128c-8.486 0-16.627 3.372-22.626 9.373-6.003 6.001-9.374 14.141-9.374 22.627s3.371 16.626 9.374 22.627c5.999 6.001 14.14 9.373 22.626 9.373h128c8.486 0 16.627-3.372 22.626-9.373 6.003-6.001 9.374-14.141 9.374-22.627z" />
<glyph unicode="&#xe91d;" glyph-name="squares-four" horiz-adv-x="1067" d="M425.333 800h-192c-16.974 0-33.253-6.743-45.255-18.745s-18.745-28.281-18.745-45.255v-192c0-16.973 6.743-33.254 18.745-45.257s28.281-18.743 45.255-18.743h192c16.975 0 33.252 6.741 45.254 18.743s18.748 28.284 18.748 45.257v192c0 16.974-6.746 33.253-18.748 45.255s-28.279 18.745-45.254 18.745zM425.333 544h-192v192h192v-192zM809.335 800h-192c-16.977 0-33.254-6.743-45.257-18.745s-18.743-28.281-18.743-45.255v-192c0-16.973 6.741-33.254 18.743-45.257s28.279-18.743 45.257-18.743h192c16.973 0 33.25 6.741 45.252 18.743s18.748 28.284 18.748 45.257v192c0 16.974-6.746 33.253-18.748 45.255s-28.279 18.745-45.252 18.745zM809.335 544h-192v192h192v-192zM425.333 416h-192c-16.974 0-33.253-6.741-45.255-18.743s-18.745-28.284-18.745-45.257v-192c0-16.973 6.743-33.254 18.745-45.257s28.281-18.743 45.255-18.743h192c16.975 0 33.252 6.741 45.254 18.743s18.748 28.284 18.748 45.257v192c0 16.973-6.746 33.254-18.748 45.257s-28.279 18.743-45.254 18.743zM425.333 160h-192v192h192v-192zM809.335 416h-192c-16.977 0-33.254-6.741-45.257-18.743s-18.743-28.284-18.743-45.257v-192c0-16.973 6.741-33.254 18.743-45.257s28.279-18.743 45.257-18.743h192c16.973 0 33.25 6.741 45.252 18.743s18.748 28.284 18.748 45.257v192c0 16.973-6.746 33.254-18.748 45.257s-28.279 18.743-45.252 18.743zM809.335 160h-192v192h192v-192z" />
<glyph unicode="&#xe91e;" glyph-name="tag" horiz-adv-x="1075" d="M984.443 416l-397.24 397.24c-5.924 5.969-12.974 10.701-20.741 13.921-7.762 3.221-16.092 4.866-24.499 4.838h-370.762c-8.487 0-16.627-3.371-22.628-9.372s-9.372-14.141-9.372-22.628v-370.759c-0.027-8.407 1.617-16.737 4.838-24.504s7.952-14.817 13.921-20.736l397.242-397.24c5.939-5.944 12.995-10.66 20.762-13.875 7.767-3.22 16.092-4.874 24.494-4.874 8.407 0 16.732 1.654 24.499 4.874 7.762 3.215 14.817 7.931 20.762 13.875l338.724 338.719c5.944 5.944 10.66 13 13.875 20.767s4.874 16.087 4.874 24.494c0 8.407-1.659 16.732-4.874 24.494-3.215 7.767-7.931 14.822-13.875 20.767zM347.201 575.999c-9.494 0-18.774 2.815-26.668 8.090s-14.046 12.771-17.679 21.542c-3.633 8.771-4.583 18.422-2.732 27.733s6.424 17.864 13.136 24.577c6.713 6.713 15.266 11.284 24.577 13.136s18.962 0.902 27.733-2.732c8.771-3.633 16.268-9.785 21.542-17.679s8.090-17.174 8.090-26.668c0-12.73-5.058-24.939-14.059-33.941s-21.211-14.059-33.941-14.059z" />
<glyph unicode="&#xe91f;" glyph-name="lifebuoy" horiz-adv-x="1056" d="M519.002 864c-82.278 0-162.707-24.398-231.119-70.109s-121.731-110.681-153.217-186.694c-31.486-76.016-39.724-159.658-23.673-240.355 16.052-80.694 55.671-154.819 113.85-212.998s132.302-97.798 212.999-113.85c80.694-16.051 164.339-7.814 240.352 23.674 76.016 31.485 140.986 84.803 186.698 153.216 45.709 68.41 70.109 148.838 70.109 231.117-0.118 110.294-43.984 216.038-121.974 294.028s-183.731 121.856-294.026 121.972zM675.402 336.842c23.152 32.442 35.597 71.302 35.597 111.158s-12.445 78.717-35.597 111.162l114 113.958c52.723-63.168 81.603-142.838 81.603-225.12s-28.88-161.952-81.603-225.12l-114 113.962zM391.002 448c0 25.315 7.507 50.064 21.571 71.114s34.054 37.456 57.443 47.142c23.389 9.69 49.126 12.224 73.955 7.283 24.829-4.938 47.638-17.13 65.539-35.030s30.093-40.707 35.030-65.536c4.938-24.832 2.403-50.566-7.283-73.955-9.69-23.389-26.096-43.382-47.146-57.446s-45.795-21.571-71.11-21.571c-33.949 0-66.506 13.485-90.512 37.491-24.003 24.003-37.488 56.56-37.488 90.509zM744.122 718.4l-113.962-114c-32.442 23.152-71.302 35.597-111.158 35.597-39.859 0-78.72-12.445-111.162-35.597l-113.96 114c63.169 52.724 142.84 81.604 225.121 81.604 82.278 0 161.949-28.88 225.12-81.604zM248.6 673.12l114.001-113.958c-23.155-32.445-35.6-71.306-35.6-111.162s12.445-78.717 35.6-111.158l-114.001-113.962c-52.724 63.168-81.604 142.838-81.604 225.12s28.88 161.952 81.604 225.12zM293.88 177.6l113.96 114c32.442-23.152 71.302-35.597 111.162-35.597 39.856 0 78.717 12.445 111.158 35.597l113.962-114c-63.171-52.723-142.842-81.603-225.12-81.603-82.282 0-161.952 28.88-225.121 81.603z" />
<glyph unicode="&#xe920;" glyph-name="ShoppingBagOpen" horiz-adv-x="1067" d="M894.669 800h-704.002c-16.974 0-33.253-6.743-45.255-18.745s-18.745-28.281-18.745-45.255v-576c0-16.973 6.743-33.254 18.745-45.257s28.281-18.743 45.255-18.743h704.002c16.973 0 33.25 6.741 45.252 18.743s18.748 28.284 18.748 45.257v576c0 16.974-6.746 33.253-18.748 45.255s-28.279 18.745-45.252 18.745zM894.669 736v-64h-704.002v64h704.002zM894.669 160h-704.002v448h704.002v-448zM734.669 512c0-50.923-20.233-99.759-56.239-135.765s-84.843-56.235-135.761-56.235c-50.923 0-99.759 20.228-135.767 56.235s-56.236 84.843-56.236 135.765c0 8.486 3.372 16.627 9.373 22.627s14.141 9.373 22.627 9.373c8.487 0 16.626-3.372 22.627-9.373s9.373-14.141 9.373-22.627c0-33.946 13.485-66.505 37.489-90.509s56.563-37.491 90.513-37.491c33.946 0 66.505 13.487 90.509 37.491s37.491 56.563 37.491 90.509c0 8.486 3.371 16.627 9.37 22.627 6.003 6.001 14.14 9.373 22.63 9.373 8.486 0 16.623-3.372 22.626-9.373 5.999-6 9.374-14.141 9.374-22.627z" />
<glyph unicode="&#xe921;" glyph-name="pants" d="M895.542 104l-88 704c-1.948 15.47-9.477 29.696-21.174 40.007s-26.755 15.998-42.345 15.993h-464c-15.593 0.005-30.651-5.681-42.347-15.993s-19.225-24.537-21.174-40.007l-88-704c-1.135-9.011-0.34-18.161 2.334-26.839 2.673-8.681 7.163-16.691 13.171-23.501s13.397-12.265 21.676-16c8.279-3.732 17.257-5.663 26.339-5.66h162.761c14.231-0.003 28.060 4.739 39.296 13.476s19.238 20.969 22.743 34.765l95.201 368 95.158-367.762c3.461-13.844 11.451-26.135 22.7-34.921 11.249-8.783 25.111-13.555 39.38-13.558h162.762c9.080-0.003 18.058 1.928 26.337 5.66 8.279 3.735 15.667 9.19 21.676 16s10.499 14.82 13.171 23.501c2.675 8.678 3.471 17.828 2.335 26.839zM771.622 579.2c-22.894 5.256-43.909 16.684-60.764 33.044s-28.902 37.028-34.836 59.756h84.001l11.599-92.8zM744.023 800l8-64h-480l8 64h464zM264.023 672h83.999c-5.934-22.728-17.981-43.395-34.836-59.756-16.852-16.361-37.87-27.789-60.763-33.044l11.601 92.8zM354.783 96h-162.761l52 417.080c41.679 4.424 80.77 22.344 111.329 51.031 30.556 28.687 50.906 66.573 57.951 107.889h66.721v-92.001l-125.24-483.999zM669.181 96.241l-125.158 483.758v92.001h66.719c7.045-41.316 27.395-79.201 57.951-107.889 30.559-28.687 69.65-46.607 111.329-51.031l52.001-417.080-162.842 0.241z" />
<glyph unicode="&#xe922;" glyph-name="tshirt" d="M990.356 715.12l-207.040 112.88c-4.692 2.596-9.961 3.971-15.322 4h-128c-8.486 0-16.625-3.372-22.628-9.373-6.001-6.001-9.372-14.14-9.372-22.627 0-25.461-10.115-49.879-28.116-67.882-18.004-18.003-42.422-28.118-67.884-28.118-25.459 0-49.879 10.114-67.881 28.118-18.004 18.003-28.119 42.422-28.119 67.882 0 8.487-3.372 16.626-9.372 22.627s-14.141 9.373-22.628 9.373h-127.999c-5.375-0.022-10.657-1.398-15.36-4l-207-112.88c-14.756-7.798-25.817-21.129-30.759-37.071s-3.36-33.193 4.399-47.969l77.080-147.241c5.605-10.586 14.006-19.43 24.288-25.574 10.283-6.141 22.054-9.347 34.032-9.265h81.32v-320c0-16.973 6.743-33.252 18.745-45.256 12.002-12.001 28.282-18.744 45.254-18.744h448c16.975 0 33.252 6.743 45.256 18.744 12.001 12.004 18.744 28.283 18.744 45.256v320h81.359c11.978-0.082 23.749 3.123 34.033 9.265 10.284 6.144 18.683 14.989 24.289 25.574l77.079 147.241c7.754 14.781 9.331 32.036 4.383 47.977-4.948 15.944-16.020 29.272-30.781 37.063zM142.675 512c-0.591-0.028-1.173 0.156-1.64 0.52l-76.68 146.44 159.64 87.121v-234.080h-81.32zM735.995 128h-448v640h67.2c7.383-36.126 27.018-68.593 55.583-91.912 28.564-23.316 64.305-36.052 101.179-36.052 36.872 0 72.612 12.736 101.176 36.052 28.564 23.319 48.2 55.785 55.583 91.912h67.279v-640zM882.995 512.561c-0.22-0.2-0.481-0.353-0.763-0.448-0.282-0.097-0.581-0.136-0.878-0.113h-81.359v234.080l159.68-87.121-76.68-146.399z" />
<glyph unicode="&#xe923;" glyph-name="close" d="M602.357 448l402.136 402.134c6.099 5.894 10.97 12.946 14.317 20.742 3.354 7.796 5.114 16.181 5.19 24.666 0.070 8.485-1.542 16.899-4.762 24.753-3.213 7.853-7.955 14.988-13.952 20.988-6.003 6-13.139 10.745-20.992 13.958s-16.269 4.83-24.749 4.756c-8.486-0.074-16.87-1.837-24.672-5.186-7.795-3.349-14.842-8.217-20.742-14.32l-402.131-402.134-402.134 402.134c-12.052 11.64-28.194 18.081-44.948 17.936s-32.782-6.866-44.63-18.714c-11.848-11.848-18.568-27.875-18.714-44.63s6.295-32.897 17.936-44.948l402.134-402.134-402.134-402.131c-6.103-5.901-10.971-12.947-14.32-20.742-3.349-7.802-5.112-16.186-5.186-24.672-0.074-8.48 1.543-16.896 4.756-24.749s7.958-14.989 13.958-20.992c6-5.997 13.135-10.739 20.988-13.952 7.853-3.219 16.268-4.832 24.753-4.762 8.485 0.077 16.87 1.837 24.666 5.19 7.796 3.347 14.848 8.218 20.742 14.317l402.134 402.136 402.131-402.136c8.915-8.998 20.307-15.136 32.717-17.638 12.416-2.496 25.299-1.242 36.998 3.603s21.69 13.062 28.704 23.61c7.008 10.547 10.72 22.944 10.662 35.603 0.006 8.397-1.651 16.704-4.864 24.454s-7.923 14.797-13.856 20.73l-402.136 402.131z" />
<glyph unicode="&#xe924;" glyph-name="quote" horiz-adv-x="1210" d="M582.288 960v-354.392c0-123.124-21.907-235.311-66.704-335.73-42.847-100.52-115.586-201.858-215.878-304.198l-29.086-29.68-249.054 198.4 35.74 36.454c74.96 76.458 124.754 148.177 152.313 215.073h-207.391v574.073h580.061zM272.801 431.981c-3.57-15.246-8.166-30.599-13.791-46.054-25.151-69.118-70.859-140.344-137.126-213.679-10.087-11.164-20.651-22.377-31.691-33.636l176.62-140.698c97.79 99.784 166.642 196.578 206.555 290.376 41.912 93.798 62.867 199.571 62.867 317.317v308.338h-487.952v-481.964h224.519zM1207.943 960v-354.392c0-123.127-21.907-235.313-66.704-335.73-42.85-100.522-115.586-201.858-215.878-304.198l-29.086-29.68-249.053 198.4 35.74 36.454c74.959 76.458 124.753 148.177 152.313 215.073h-207.393v574.073h580.061zM898.455 431.981c-3.57-15.246-8.166-30.599-13.789-46.054-25.151-69.118-70.861-140.344-137.128-213.679-10.089-11.164-20.652-22.377-31.69-33.636l176.619-140.698c97.79 99.784 166.642 196.578 206.557 290.376 41.91 93.798 62.864 199.571 62.864 317.317v308.338h-487.952v-481.964h224.519z" />
<glyph unicode="&#xe925;" glyph-name="lightning-line" horiz-adv-x="1088" d="M879.162 487.293c-1.21 5.129-3.674 9.879-7.162 13.828s-7.898 6.977-12.838 8.812l-230.44 86.44 58.639 293.32c1.331 6.815 0.403 13.877-2.63 20.121-3.040 6.243-8.026 11.329-14.208 14.49s-13.229 4.226-20.064 3.033c-6.842-1.193-13.108-4.578-17.856-9.644l-448-480c-3.639-3.834-6.271-8.509-7.661-13.609s-1.497-10.465-0.308-15.615c1.189-5.151 3.635-9.926 7.119-13.901s7.9-7.024 12.851-8.876l230.52-86.442-58.48-292.998c-1.328-6.816-0.403-13.875 2.635-20.122 3.038-6.24 8.024-11.328 14.206-14.49s13.224-4.224 20.065-3.034c6.84 1.19 13.107 4.576 17.855 9.645l447.997 480c3.578 3.835 6.15 8.488 7.507 13.552 1.35 5.064 1.44 10.382 0.256 15.488zM453.482 103.974l41.88 209.517c1.499 7.432 0.311 15.154-3.352 21.791s-9.562 11.758-16.648 14.451l-211.36 79.4 338.48 362.64-41.84-209.52c-1.499-7.431-0.311-15.153 3.352-21.789s9.562-11.757 16.648-14.451l211.199-79.2-338.358-362.838z" />
<glyph unicode="&#xe926;" glyph-name="sealCheck" horiz-adv-x="999" d="M881.404 546.264c-14.711 15.375-29.931 31.22-35.668 45.151-5.307 12.76-5.62 33.912-5.932 54.399-0.584 38.088-1.209 81.249-31.22 111.259s-73.171 30.634-111.259 31.22c-20.487 0.312-41.639 0.624-54.399 5.932-13.894 5.737-29.776 20.956-45.151 35.668-26.929 25.873-57.521 55.18-98.264 55.18s-71.298-29.307-98.264-55.18c-15.375-14.712-31.22-29.932-45.151-35.668-12.683-5.307-33.912-5.62-54.399-5.932-38.088-0.585-81.249-1.21-111.259-31.22s-30.439-73.171-31.22-111.259c-0.312-20.487-0.624-41.639-5.932-54.399-5.737-13.894-20.956-29.776-35.668-45.151-25.873-26.929-55.18-57.521-55.18-98.264s29.307-71.298 55.18-98.264c14.712-15.375 29.932-31.22 35.668-45.151 5.307-12.76 5.62-33.912 5.932-54.399 0.585-38.088 1.21-81.248 31.22-111.259s73.171-30.635 111.259-31.22c20.487-0.312 41.639-0.624 54.399-5.932 13.894-5.737 29.776-20.957 45.151-35.668 26.929-25.875 57.521-55.181 98.264-55.181s71.298 29.306 98.264 55.181c15.375 14.711 31.22 29.931 45.151 35.668 12.76 5.307 33.912 5.62 54.399 5.932 38.088 0.584 81.248 1.209 111.259 31.22s30.635 73.171 31.22 111.259c0.312 20.487 0.624 41.639 5.932 54.399 5.737 13.894 20.957 29.776 35.668 45.151 25.875 26.929 55.181 57.521 55.181 98.264s-29.306 71.298-55.181 98.264zM836.331 392.936c-18.692-19.511-38.048-39.689-48.31-64.467-9.835-23.807-10.265-51.005-10.655-77.347-0.39-27.318-0.819-55.923-12.955-68.021-12.138-12.096-40.548-12.565-68.021-12.955-26.342-0.39-53.54-0.819-77.347-10.655-24.778-10.262-44.956-29.619-64.467-48.31-19.513-18.694-39.454-37.816-55.064-37.816s-35.708 19.201-55.064 37.816c-19.356 18.614-39.686 38.048-64.467 48.31-23.807 9.835-51.005 10.265-77.347 10.655-27.318 0.39-55.922 0.819-68.020 12.955-12.098 12.138-12.566 40.548-12.956 68.021-0.39 26.342-0.819 53.54-10.654 77.347-10.263 24.778-29.62 44.956-48.312 64.467-18.693 19.513-37.815 39.454-37.815 55.064s19.2 35.708 37.815 55.064c18.615 19.356 38.049 39.686 48.312 64.467 9.834 23.807 10.263 51.005 10.654 77.347 0.39 27.318 0.819 55.923 12.956 68.020s40.547 12.566 68.020 12.956c26.342 0.39 53.54 0.819 77.347 10.654 24.781 10.263 44.956 29.62 64.467 48.312 19.513 18.693 39.454 37.815 55.064 37.815s35.708-19.2 55.064-37.815c19.356-18.615 39.689-38.049 64.467-48.312 23.807-9.834 51.005-10.263 77.347-10.654 27.318-0.39 55.923-0.819 68.021-12.956 12.096-12.137 12.565-40.547 12.955-68.020 0.39-26.342 0.819-53.54 10.655-77.347 10.262-24.781 29.619-44.956 48.31-64.467 18.694-19.513 37.816-39.454 37.816-55.064s-19.201-35.708-37.816-55.064zM677.698 563.747c2.902-2.9 5.205-6.344 6.776-10.133 1.571-3.791 2.38-7.852 2.38-11.956s-0.809-8.165-2.38-11.956c-1.571-3.789-3.874-7.233-6.776-10.133l-218.537-218.537c-2.9-2.902-6.344-5.205-10.133-6.776-3.791-1.571-7.852-2.38-11.956-2.38s-8.165 0.809-11.956 2.38c-3.789 1.571-7.233 3.874-10.133 6.776l-93.659 93.659c-5.857 5.859-9.149 13.804-9.149 22.088s3.292 16.229 9.149 22.088c5.859 5.857 13.804 9.149 22.088 9.149s16.229-3.292 22.088-9.149l71.57-71.61 196.448 196.488c2.9 2.902 6.344 5.205 10.133 6.776 3.791 1.571 7.852 2.38 11.956 2.38s8.165-0.809 11.956-2.38c3.789-1.571 7.233-3.874 10.133-6.776z" />
<glyph unicode="&#xe927;" glyph-name="headset" horiz-adv-x="999" d="M787.863 734.205c-37.346 37.722-81.765 67.707-130.717 88.238-48.95 20.531-101.468 31.205-154.552 31.411h-3.082c-107.64 0-210.869-42.759-286.982-118.872s-118.872-179.342-118.872-286.982v-218.537c0-24.841 9.868-48.662 27.432-66.228 17.564-17.563 41.387-27.431 66.227-27.431h62.439c24.841 0 48.662 9.868 66.228 27.431 17.563 17.565 27.431 41.387 27.431 66.228v156.098c0 24.841-9.868 48.662-27.431 66.228-17.565 17.563-41.387 27.431-66.228 27.431h-92.254c6.021 65.096 30.472 127.126 70.487 178.82 40.014 51.697 93.936 90.915 155.444 113.060 61.51 22.145 128.055 26.299 191.84 11.975 63.783-14.324 122.163-46.532 168.298-92.851 56.385-56.675 91.069-131.357 97.989-211.004h-92.292c-24.841 0-48.662-9.868-66.228-27.431-17.563-17.565-27.431-41.387-27.431-66.228v-156.098c0-24.841 9.868-48.662 27.431-66.228 17.565-17.563 41.387-27.431 66.228-27.431h93.659c0-24.841-9.868-48.662-27.431-66.228-17.565-17.563-41.387-27.431-66.228-27.431h-218.537c-8.279 0-16.222-3.289-22.076-9.144s-9.144-13.797-9.144-22.076c0-8.279 3.289-16.222 9.144-22.076s13.797-9.144 22.076-9.144h218.537c41.4 0 81.103 16.446 110.377 45.72s45.72 68.978 45.72 110.377v312.195c0.202 53.091-10.070 105.697-30.235 154.811-20.163 49.112-49.819 93.761-87.267 131.393zM249.756 416.78c8.279 0 16.222-3.289 22.076-9.144s9.144-13.797 9.144-22.076v-156.098c0-8.279-3.289-16.222-9.144-22.076s-13.797-9.144-22.076-9.144h-62.439c-8.28 0-16.221 3.289-22.075 9.144s-9.144 13.797-9.144 22.076v187.317h93.659zM749.268 198.244c-8.279 0-16.222 3.289-22.076 9.144s-9.144 13.797-9.144 22.076v156.098c0 8.279 3.289 16.222 9.144 22.076s13.797 9.144 22.076 9.144h93.659v-218.537h-93.659z" />
<glyph unicode="&#xe928;" glyph-name="shipping" horiz-adv-x="999" d="M965.542 490.928l-54.634 136.584c-4.635 11.556-12.633 21.454-22.96 28.412-10.325 6.958-22.501 10.655-34.953 10.612h-134.946v31.22c0 8.279-3.289 16.221-9.144 22.075s-13.797 9.144-22.076 9.144h-593.171c-16.56 0-32.442-6.578-44.151-18.288s-18.288-27.592-18.288-44.151v-437.073c0-16.559 6.578-32.441 18.288-44.152 11.71-11.709 27.591-18.287 44.151-18.287h66.341c6.878-26.861 22.5-50.671 44.404-67.671 21.904-17.003 48.844-26.232 76.572-26.232s54.669 9.228 76.573 26.232c21.904 17.001 37.526 40.81 44.404 67.671h195.119c6.878-26.861 22.501-50.671 44.404-67.671 21.904-17.003 48.845-26.232 76.573-26.232s54.669 9.228 76.573 26.232c21.904 17.001 37.526 40.81 44.404 67.671h66.34c16.559 0 32.441 6.579 44.152 18.287 11.709 11.711 18.287 27.593 18.287 44.152v249.756c0.010 4.011-0.759 7.987-2.263 11.709zM718.049 604.098h134.946l37.463-93.659h-172.409v93.659zM93.659 666.537h561.951v-249.756h-561.951v249.756zM280.976 135.805c-12.35 0-24.421 3.661-34.689 10.522s-18.271 16.614-22.997 28.023c-4.726 11.409-5.962 23.964-3.553 36.075 2.409 12.113 8.356 23.237 17.088 31.971 8.732 8.731 19.857 14.678 31.971 17.088 12.111 2.408 24.666 1.171 36.075-3.554s21.162-12.73 28.023-22.998c6.861-10.267 10.522-22.338 10.522-34.689 0-16.559-6.579-32.441-18.287-44.152-11.711-11.709-27.593-18.287-44.152-18.287zM597.072 229.463h-195.119c-6.878 26.861-22.501 50.671-44.404 67.671-21.904 17.003-48.845 26.232-76.573 26.232s-54.668-9.228-76.572-26.232c-21.904-17.001-37.526-40.81-44.404-67.671h-66.341v124.878h561.951v-48.038c-14.356-8.299-26.921-19.364-36.969-32.553-10.050-13.19-17.381-28.242-21.569-44.287zM718.049 135.805c-12.35 0-24.421 3.661-34.689 10.522s-18.272 16.614-22.998 28.023c-4.725 11.409-5.962 23.964-3.554 36.075 2.41 12.113 8.357 23.237 17.088 31.971 8.734 8.731 19.858 14.678 31.971 17.088 12.111 2.408 24.666 1.171 36.075-3.554s21.162-12.73 28.023-22.998c6.861-10.267 10.522-22.338 10.522-34.689 0-16.559-6.579-32.441-18.287-44.152-11.711-11.709-27.593-18.287-44.152-18.287zM905.366 229.463h-66.34c-6.961 26.796-22.613 50.528-44.504 67.477s-48.787 26.157-76.473 26.182v124.878h187.317v-218.537z" />
<glyph unicode="&#xe929;" glyph-name="return" horiz-adv-x="999" d="M905.366 510.439c-0.072-66.218-26.409-129.701-73.231-176.525-46.824-46.822-110.307-73.159-176.525-73.231h-455.376l134.049-134.009c5.857-5.859 9.149-13.804 9.149-22.088s-3.292-16.229-9.149-22.088c-5.859-5.857-13.804-9.149-22.088-9.149s-16.229 3.292-22.088 9.149l-187.316 187.317c-2.903 2.9-5.205 6.344-6.776 10.133-1.571 3.791-2.38 7.852-2.38 11.956s0.809 8.165 2.38 11.956c1.571 3.789 3.874 7.233 6.776 10.133l187.316 187.317c5.859 5.857 13.804 9.149 22.088 9.149s16.229-3.292 22.088-9.149c5.857-5.859 9.149-13.804 9.149-22.088s-3.292-16.229-9.149-22.088l-134.049-134.009h455.376c49.679 0 97.325 19.736 132.453 54.864s54.864 82.774 54.864 132.453c0 49.679-19.736 97.325-54.864 132.453s-82.774 54.864-132.453 54.864h-343.415c-8.279 0-16.222 3.289-22.076 9.144s-9.144 13.796-9.144 22.076c0 8.28 3.289 16.221 9.144 22.075s13.797 9.144 22.076 9.144h343.415c66.218-0.072 129.701-26.409 176.525-73.231 46.822-46.824 73.159-110.307 73.231-176.525z" />
<glyph unicode="&#xe92a;" glyph-name="star" horiz-adv-x="1097" d="M242.742 320.845l-210.172 156.033c-39.668 28.45-22.27 85.662 28.069 92.111l298.091 11.911 127.298 286.216c8.873 15.863 26.909 25.849 46.685 25.849s37.813-10.038 46.686-25.849l127.298-286.216 298.089-11.911c50.344-6.449 67.738-63.661 28.072-92.111l-210.169-156.033 57.351-304.629c6.612-41.552-41.523-72.66-83.339-53.884l-263.988 150.469-263.99-150.418c-41.871-18.776-89.949 12.332-83.338 53.884l57.356 304.578z" />
<glyph unicode="&#xe92b;" glyph-name="mail" horiz-adv-x="975" d="M853.333 765.238h-731.429c-8.083 0-15.834-3.211-21.55-8.926s-8.926-13.467-8.926-21.55v-518.093c0-16.169 6.422-31.671 17.853-43.101s26.934-17.852 43.1-17.852h670.476c16.165 0 31.671 6.422 43.101 17.852s17.852 26.931 17.852 43.101v518.093c0 8.083-3.209 15.834-8.928 21.55-5.715 5.715-13.463 8.926-21.548 8.926zM774.973 704.286l-287.354-263.429-287.352 263.429h574.706zM822.857 216.669h-670.476v448.798l314.628-288.42c5.623-5.159 12.977-8.026 20.61-8.026s14.989 2.867 20.612 8.026l314.626 288.42v-448.798z" />
<glyph unicode="&#xe92c;" glyph-name="phone" horiz-adv-x="1075" d="M910.331 326.17l-188.959 84.68c-9.784 4.183-20.454 5.862-31.053 4.884-10.593-0.978-20.777-4.582-29.629-10.486-1.039-0.686-2.043-1.439-3-2.237l-97.357-83c-61.682 29.957-125.362 93.158-155.322 154.038l83.12 98.84c0.8 1 1.56 2 2.28 3.080 5.777 8.828 9.282 18.947 10.203 29.457s-0.77 21.085-4.923 30.783v0.48l-84.68 188.76c-5.491 12.669-14.931 23.224-26.913 30.087s-25.861 9.667-39.567 7.993c-54.201-7.132-103.953-33.751-139.963-74.884s-55.815-93.968-55.717-148.636c0-317.602 258.4-575.998 575.998-575.998 54.671-0.102 107.505 19.707 148.639 55.716s67.753 85.76 74.885 139.96c1.674 13.701-1.121 27.581-7.977 39.562s-17.403 21.422-30.065 26.921zM724.849 128.010c-135.741 0.148-265.887 54.139-361.873 150.124s-149.977 226.129-150.125 361.874c-0.151 39.060 13.922 76.84 39.59 106.284s61.174 48.538 99.89 53.716c-0.015-0.16-0.015-0.321 0-0.48l84-188-82.68-98.96c-0.839-0.966-1.602-1.996-2.28-3.080-6.019-9.237-9.55-19.872-10.251-30.875s1.453-22 6.252-31.924c36.24-74.122 110.92-148.239 185.842-184.443 9.999-4.751 21.059-6.83 32.102-6.031 11.039 0.799 21.688 4.449 30.894 10.593 1.029 0.691 2.017 1.439 2.959 2.237l97.244 82.964 187.996-84.204c0 0 0.323 0 0.44 0-5.115-38.769-24.182-74.348-53.627-100.081-29.45-25.728-67.267-39.849-106.373-39.716z" />
<glyph unicode="&#xe92d;" glyph-name="pinterest" horiz-adv-x="1075" d="M546.76 960c-280.705-0.043-429.91-179.882-429.91-375.978 0-90.923 50.816-204.374 132.181-240.342 23.211-10.455 20.139 2.304 40.107 78.679 0.919 3.082 1 6.359 0.236 9.482-0.765 3.128-2.349 5.996-4.588 8.31-116.31 134.526-22.699 411.091 245.374 411.091 387.968 0 315.479-536.834 67.502-536.834-63.918 0-111.533 50.176-96.472 112.256 18.264 73.943 54.017 153.431 54.017 206.722 0 134.315-200.107 114.39-200.107-63.573 0-54.998 19.456-92.118 19.456-92.118s-64.384-260.096-76.33-308.695c-20.224-82.258 2.73-215.424 4.736-226.898 1.237-6.318 8.32-8.32 12.288-3.118 6.357 8.32 84.181 119.342 105.984 199.598 7.936 29.225 40.49 147.84 40.49 147.84 21.462-38.743 83.33-71.168 149.25-71.168 196.096 0 337.833 172.37 337.833 386.259-0.681 205.056-176.169 358.486-402.048 358.486z" />
<glyph unicode="&#xe92e;" glyph-name="amazon" horiz-adv-x="975" d="M579.048 430.002c0-18.086-5.364-35.762-15.409-50.795-10.045-15.038-24.327-26.756-41.033-33.675s-35.088-8.733-52.823-5.203c-17.736 3.525-34.027 12.234-46.813 25.020-12.787 12.79-21.494 29.082-25.022 46.816s-1.717 36.118 5.203 52.824c6.92 16.706 18.639 30.985 33.674 41.031s32.712 15.409 50.795 15.409c24.249 0 47.504-9.632 64.649-26.779 17.15-17.147 26.78-40.404 26.78-64.648zM883.81 460.478c0-78.36-23.235-154.96-66.77-220.111-43.535-65.156-105.409-115.936-177.805-145.925-72.392-29.984-152.055-37.829-228.908-22.543s-147.448 53.019-202.856 108.427c-55.408 55.408-93.142 126.006-108.429 202.854-15.287 76.854-7.441 156.516 22.546 228.911s80.768 134.271 145.921 177.805c65.153 43.534 141.752 66.77 220.111 66.77 105.043-0.111 205.751-41.888 280.025-116.164 74.279-74.276 116.053-174.984 116.165-280.025zM579.048 551.905c-22.64 16.979-49.557 27.319-77.746 29.86-28.182 2.541-56.518-2.816-81.829-15.472s-46.598-32.11-61.476-56.182c-14.878-24.073-22.758-51.813-22.758-80.109 0-28.301 7.88-56.042 22.758-80.116 14.878-24.069 36.165-43.525 61.476-56.179 25.311-12.659 53.647-18.013 81.829-15.472 28.189 2.54 55.106 12.878 77.746 29.862 0-8.085 3.213-15.838 8.928-21.553s13.463-8.923 21.548-8.923c8.085 0 15.833 3.209 21.548 8.923 5.72 5.715 8.928 13.468 8.928 21.553v243.808c0.010 33.061-10.737 65.227-30.608 91.647-19.875 26.419-47.806 45.658-79.575 54.814s-65.65 7.732-96.537-4.057c-30.887-11.789-57.102-33.304-74.69-61.298-4.137-6.836-5.423-15.024-3.583-22.8s6.662-14.517 13.425-18.773c6.763-4.256 14.927-5.685 22.734-3.98s14.631 6.408 19.004 13.096c10.546 16.809 26.275 29.732 44.812 36.815s38.877 7.943 57.943 2.45c19.071-5.493 35.835-17.041 47.762-32.9s18.373-35.169 18.359-55.013zM749.753 301.963c-6.456 4.857-14.58 6.953-22.582 5.822-8.002-1.126-15.223-5.388-20.085-11.844-25.546-34.080-58.68-61.737-96.773-80.794-38.098-19.051-80.101-28.969-122.695-28.969-42.592 0-84.599 9.918-122.693 28.969-38.093 19.056-71.227 46.714-96.774 80.794-2.368 3.301-5.372 6.090-8.833 8.212-3.462 2.116-7.312 3.525-11.325 4.14-4.013 0.61-8.108 0.414-12.044-0.58-3.936-0.99-7.635-2.76-10.878-5.203-3.243-2.438-5.966-5.505-8.009-9.011-2.043-3.511-3.364-7.392-3.886-11.415-0.522-4.028-0.235-8.114 0.845-12.030 1.080-3.911 2.931-7.568 5.443-10.757 31.228-41.623 71.716-75.401 118.258-98.67 46.542-23.264 97.861-35.377 149.895-35.377s103.351 12.112 149.894 35.377c46.543 23.269 87.030 57.047 118.257 98.67 4.857 6.456 6.953 14.58 5.827 22.577-1.131 8.002-5.388 15.228-11.844 20.090z" />
<glyph unicode="&#xe92f;" glyph-name="fb" horiz-adv-x="975" d="M563.21-27.141v444.816h149.246l22.391 173.407h-171.637v110.694c0 50.189 13.878 84.392 85.933 84.392l91.746 0.038v155.1c-15.867 2.062-70.329 6.789-133.72 6.789-132.37 0-222.993-80.797-222.993-229.145v-127.868h-149.7v-173.407h149.7v-444.816h179.034z" />
<glyph unicode="&#xe930;" glyph-name="tiktok" d="M912.955 608.762v-152.38c0-8.085-3.213-15.838-8.928-21.553s-13.468-8.923-21.548-8.923c-63.668-0.151-126.415 15.16-182.857 44.607v-151.274c0-76.785-30.505-150.43-84.802-204.727s-127.938-84.797-204.724-84.797c-76.787 0-150.428 30.501-204.724 84.797s-84.799 127.941-84.799 204.727c0 140.571 102.514 264.837 238.476 289.065 4.386 0.78 8.89 0.588 13.194-0.561s8.304-3.228 11.718-6.090c3.414-2.862 6.159-6.438 8.042-10.475s2.858-8.438 2.856-12.893v-162.63c0.001-5.769-1.633-11.415-4.715-16.291s-7.484-8.777-12.695-11.249c-12.318-5.842-22.843-14.882-30.478-26.18-7.635-11.293-12.098-24.435-12.925-38.039-0.827-13.609 2.013-27.19 8.223-39.326 6.21-12.142 15.564-22.387 27.084-29.676 11.52-7.295 24.787-11.357 38.414-11.776 13.627-0.414 27.117 2.833 39.062 9.406s21.906 16.228 28.847 27.965c6.94 11.732 10.605 25.117 10.611 38.751v502.856c0 8.083 3.21 15.834 8.925 21.55s13.468 8.926 21.553 8.926h152.381c8.080 0 15.833-3.211 21.548-8.926s8.928-13.467 8.928-21.55c0.049-48.482 19.329-94.963 53.609-129.244 34.284-34.282 80.764-53.563 129.248-53.613 8.080 0 15.833-3.211 21.548-8.926s8.928-13.467 8.928-21.55z" />
<glyph unicode="&#xe931;" glyph-name="x" horiz-adv-x="975" d="M578.404 535.148l355.25 412.947h-84.183l-308.463-358.556-246.368 358.556h-284.156l372.556-542.201-372.556-433.035h84.187l325.743 378.646 260.184-378.646h284.155l-386.35 562.289zM463.098 401.12l-338.092 483.601h129.306l595.198-851.373h-129.307l-257.105 367.772z" />
<glyph unicode="&#xe932;" glyph-name="instagram" horiz-adv-x="1075" d="M788.833 960h-511.99c-140.784 0-255.993-115.21-255.993-255.994v-512.011c0-140.749 115.21-255.995 255.993-255.995h511.99c140.78 0 255.99 115.246 255.99 255.995v512.011c0 140.784-115.21 255.994-255.99 255.994zM959.488 191.995c0-94.080-76.529-170.66-170.655-170.66h-511.99c-94.090 0-170.658 76.58-170.658 170.66v512.011c0 94.103 76.569 170.658 170.658 170.658h511.99c94.126 0 170.655-76.555 170.655-170.658v-512.011zM810.25 661.303c35.343 0 63.995 28.653 63.995 63.998s-28.652 63.998-63.995 63.998c-35.348 0-64-28.653-64-63.998s28.652-63.998 64-63.998zM532.844 704c-141.411 0-255.993-114.595-255.993-255.994 0-141.349 114.582-256.016 255.993-256.016 141.373 0 255.995 114.668 255.995 256.016 0 141.399-114.621 255.994-255.995 255.994zM532.844 277.325c-94.245 0-170.658 76.411-170.658 170.681s76.413 170.658 170.658 170.658c94.244 0 170.66-76.388 170.66-170.658s-76.416-170.681-170.66-170.681z" />
<glyph unicode="&#xe933;" glyph-name="arrLeft" horiz-adv-x="1075" d="M735.222 821.116c13.368-13.193 14.582-33.838 3.645-48.386l-3.645-4.168-324.733-320.562 324.733-320.563c13.368-13.189 14.582-33.838 3.645-48.384l-3.645-4.168c-13.363-13.194-34.278-14.392-49.019-3.599l-4.219 3.599-351.374 346.839c-13.365 13.194-14.58 33.837-3.645 48.385l3.645 4.168 351.374 346.839c14.7 14.512 38.538 14.512 53.238 0z" />
<glyph unicode="&#xe934;" glyph-name="arrRight" horiz-adv-x="1075" d="M330.477 74.885c-13.366 13.194-14.581 33.838-3.645 48.384l3.645 4.168 324.735 320.563-324.735 320.562c-13.366 13.193-14.581 33.838-3.645 48.386l3.645 4.168c13.366 13.193 34.28 14.392 49.018 3.598l4.222-3.598 351.371-346.839c13.368-13.193 14.582-33.839 3.645-48.385l-3.645-4.168-351.371-346.839c-14.702-14.515-38.539-14.515-53.241 0z" />
<glyph unicode="&#xe935;" glyph-name="arrow-down" horiz-adv-x="1109" d="M198.575 642.248c12.314 12.831 31.583 13.997 45.161 3.5l3.889-3.5 299.191-311.746 299.191 311.746c12.318 12.831 31.586 13.997 45.163 3.5l3.891-3.5c12.314-12.831 13.431-32.909 3.354-47.058l-3.354-4.053-323.72-337.318c-12.314-12.831-31.582-13.997-45.16-3.5l-3.89 3.5-323.716 337.318c-13.544 14.114-13.544 36.997 0 51.111z" />
<glyph unicode="&#xe936;" glyph-name="arrowUpRight" horiz-adv-x="1067" d="M839.872 704v-416c0-12.732-5.056-24.939-14.059-33.941s-21.21-14.059-33.941-14.059c-12.727 0-24.939 5.056-33.941 14.059-8.998 9.003-14.059 21.21-14.059 33.941v300l-430.039-429.958c-9.018-9.020-21.248-14.084-34-14.084s-24.983 5.065-34 14.084c-9.018 9.015-14.083 21.248-14.083 33.997 0 12.753 5.066 24.986 14.083 34.001l430.041 429.961h-300.001c-12.73 0-24.94 5.057-33.941 14.059s-14.059 21.211-14.059 33.941c0 12.73 5.057 24.94 14.059 33.941s21.211 14.059 33.941 14.059h415.999c12.732 0 24.939-5.057 33.941-14.059s14.059-21.211 14.059-33.941z" />
<glyph unicode="&#xe937;" glyph-name="check" horiz-adv-x="1088" d="M922.47 649.28l-512-512c-2.972-2.976-6.501-5.338-10.386-6.944-3.885-1.613-8.049-2.438-12.254-2.438s-8.369 0.826-12.254 2.438c-3.885 1.606-7.414 3.968-10.386 6.944l-224 224c-6.004 6.004-9.378 14.148-9.378 22.64s3.373 16.636 9.378 22.64c6.004 6.004 14.148 9.377 22.64 9.377s16.636-3.373 22.64-9.377l201.36-201.402 489.36 489.402c6.003 6.004 14.15 9.377 22.637 9.377 8.493 0 16.64-3.373 22.643-9.377s9.376-14.148 9.376-22.64c0-8.492-3.373-16.636-9.376-22.64z" />
<glyph unicode="&#xe938;" glyph-name="eye" horiz-adv-x="1067" d="M1013.116 460.962c-1.399 3.157-35.281 78.318-110.601 153.638-100.361 100.36-227.119 153.4-366.639 153.4-139.522 0-266.282-53.040-366.641-153.4-75.32-75.32-109.36-150.6-110.6-153.638-1.82-4.096-2.76-8.525-2.76-13.001 0-4.48 0.94-8.909 2.76-13.001 1.4-3.162 35.28-78.281 110.6-153.6 100.36-100.322 227.12-153.361 366.641-153.361s266.278 53.039 366.639 153.361c75.319 75.319 109.201 150.438 110.601 153.6 1.818 4.092 2.761 8.521 2.761 13.001 0 4.476-0.943 8.905-2.761 13.001zM535.876 192c-123.121 0-230.682 44.762-319.722 133.001-36.534 36.331-67.616 77.76-92.28 122.999 24.657 45.244 55.74 86.673 92.28 123 89.040 88.24 196.6 133 319.722 133 123.119 0 230.677-44.76 319.718-133 36.604-36.318 67.755-77.748 92.48-123-28.838-53.841-154.479-256-412.198-256zM535.876 640c-37.978 0-75.098-11.261-106.671-32.358-31.575-21.097-56.183-51.084-70.716-86.166-14.532-35.085-18.334-73.69-10.926-110.933s25.694-71.454 52.546-98.308c26.851-26.85 61.061-45.137 98.309-52.544 37.244-7.411 75.849-3.61 110.929 10.923 35.085 14.532 65.071 39.142 86.17 70.716 21.094 31.578 32.358 68.698 32.358 106.671-0.055 50.906-20.301 99.711-56.294 135.706-35.998 35.995-84.8 56.241-135.706 56.294zM535.876 320c-25.318 0-50.065 7.505-71.113 21.572-21.052 14.063-37.457 34.057-47.146 57.442-9.688 23.39-12.223 49.126-7.284 73.958 4.939 24.828 17.131 47.637 35.029 65.537 17.903 17.901 40.708 30.092 65.54 35.031 24.828 4.939 50.564 2.404 73.954-7.284s43.379-26.094 57.446-47.144c14.063-21.047 21.572-45.798 21.572-71.113 0-33.946-13.487-66.505-37.491-90.509s-56.563-37.491-90.509-37.491z" />
<glyph unicode="&#xe939;" glyph-name="gitDiff" horiz-adv-x="1067" d="M471.876 351.983c-8.486 0-16.627-3.375-22.63-9.374-5.999-6.003-9.37-14.14-9.37-22.626v-114.761l-113.121 113.161c-14.91 14.814-26.732 32.439-34.778 51.861-8.047 19.418-12.161 40.239-12.102 61.257v148.48c30.165 7.788 56.454 26.311 73.939 52.096s24.966 57.062 21.041 87.968c-3.926 30.906-18.988 59.319-42.365 79.914s-53.461 31.957-84.615 31.957c-31.154 0-61.239-11.363-84.616-31.957s-38.439-49.008-42.364-79.914c-3.926-30.906 3.555-62.183 21.041-87.968s43.774-44.308 73.939-52.096v-148.519c-0.075-29.427 5.684-58.581 16.945-85.769s27.797-51.874 48.655-72.631l113.16-113.079h-114.76c-8.487 0-16.626-3.375-22.627-9.374-6.001-6.003-9.373-14.14-9.373-22.626 0-8.491 3.372-16.627 9.373-22.63 6.001-5.999 14.141-9.37 22.627-9.37h192.001c8.486 0 16.627 3.371 22.626 9.37 6.003 6.003 9.374 14.14 9.374 22.63v192c0 8.486-3.371 16.623-9.374 22.626-5.999 5.999-14.14 9.374-22.626 9.374zM183.875 703.981c0 12.658 3.753 25.032 10.786 35.556s17.028 18.728 28.722 23.572c11.695 4.844 24.563 6.112 36.977 3.642s23.819-8.565 32.769-17.516c8.951-8.951 15.046-20.354 17.516-32.769s1.202-25.283-3.642-36.977c-4.844-11.694-13.047-21.69-23.572-28.722s-22.898-10.786-35.556-10.786c-16.974 0-33.253 6.743-45.255 18.745s-18.745 28.281-18.745 45.255zM855.876 315.981v148.48c0.073 29.427-5.687 58.577-16.947 85.767-11.26 27.188-27.793 51.875-48.653 72.634l-113.161 113.12h114.761c8.486 0 16.627 3.372 22.626 9.373 6.003 6.001 9.374 14.141 9.374 22.627s-3.371 16.626-9.374 22.627c-5.999 6.001-14.14 9.373-22.626 9.373h-192c-8.486 0-16.627-3.372-22.63-9.373-5.999-6.001-9.37-14.141-9.37-22.627v-192c0-8.487 3.371-16.626 9.37-22.627 6.003-6.001 14.144-9.373 22.63-9.373s16.627 3.372 22.626 9.373c6.003 6.001 9.374 14.141 9.374 22.627v114.76l113.118-113.16c14.912-14.816 26.731-32.443 34.782-51.86 8.047-19.418 12.16-40.243 12.1-61.261v-148.48c-30.165-7.787-56.457-26.313-73.941-52.096s-24.964-57.062-21.039-87.966c3.925-30.908 18.987-59.319 42.364-79.915s53.461-31.957 84.617-31.957c31.155 0 61.239 11.362 84.617 31.957 23.373 20.595 38.438 49.007 42.364 79.915 3.925 30.903-3.558 62.182-21.043 87.966s-43.772 44.309-73.937 52.096zM823.876 127.983c-12.659 0-25.033 3.75-35.558 10.786-10.526 7.031-18.726 17.024-23.569 28.719-4.847 11.695-6.114 24.563-3.644 36.979s8.563 23.817 17.515 32.768c8.951 8.951 20.356 15.049 32.768 17.515 12.416 2.47 25.284 1.203 36.979-3.639 11.695-4.847 21.692-13.047 28.723-23.573s10.786-22.899 10.786-35.554c0-16.977-6.746-33.254-18.748-45.257s-28.279-18.743-45.252-18.743z" />
<glyph unicode="&#xe93a;" glyph-name="heart" horiz-adv-x="1067" d="M735.876 832c-82.603 0-154.923-35.52-200-95.56-45.082 60.040-117.401 95.56-200.001 95.56-65.751-0.074-128.788-26.226-175.281-72.719s-72.645-109.53-72.719-175.281c0-280 415.161-506.641 432.842-515.998 4.659-2.509 9.869-3.823 15.159-3.823s10.5 1.314 15.159 3.823c17.681 9.357 432.841 235.998 432.841 515.998-0.077 65.751-26.227 128.788-72.721 175.281s-109.53 72.645-175.279 72.719zM535.876 132.8c-73.041 42.56-384.001 236.442-384.001 451.2 0.064 48.78 19.47 95.545 53.963 130.037s81.257 53.899 130.037 53.963c77.8 0 143.118-41.44 170.399-108 2.411-5.869 6.511-10.889 11.785-14.422 5.269-3.533 11.473-5.419 17.818-5.419s12.544 1.886 17.818 5.419c5.269 3.533 9.37 8.553 11.78 14.422 27.281 66.68 92.599 108 170.402 108 48.781-0.064 95.543-19.47 130.035-53.963 34.496-34.493 53.901-81.257 53.965-130.037 0-214.438-311.040-408.602-384-451.2z" />
<glyph unicode="&#xe93b;" glyph-name="lightning" horiz-adv-x="1088" d="M891.238 458.188l-447.997-479.999c-4.748-5.069-11.014-8.454-17.855-9.645s-13.882-0.128-20.065 3.034c-6.182 3.162-11.168 8.243-14.206 14.49s-3.963 13.306-2.635 20.122l58.64 293.318-230.52 86.561c-4.951 1.852-9.366 4.901-12.851 8.876s-5.93 8.75-7.119 13.901c-1.188 5.15-1.082 10.515 0.308 15.615s4.022 9.775 7.661 13.609l448 480c4.749 5.067 11.014 8.452 17.856 9.644 6.835 1.193 13.882 0.128 20.064-3.033s11.168-8.247 14.202-14.49c3.040-6.243 3.968-13.306 2.637-20.121l-58.797-293.64 230.515-86.44c4.915-1.864 9.299-4.91 12.755-8.869s5.888-8.708 7.072-13.828c1.184-5.12 1.094-10.454-0.269-15.53-1.37-5.076-3.962-9.738-7.558-13.572h0.16z" />
<glyph unicode="&#xe93c;" glyph-name="search2" d="M918.609 86.63l-200.282 200.239c58.048 69.692 86.997 159.083 80.819 249.572s-47.006 175.115-113.988 236.271c-66.982 61.155-154.965 94.132-245.641 92.072-90.679-2.061-177.072-39.001-241.207-103.136s-101.076-150.528-103.136-241.204c-2.061-90.679 30.917-178.658 92.072-245.641 61.155-66.987 145.78-107.81 236.271-113.988 90.488-6.178 179.879 22.767 249.571 80.815l200.239-200.277c2.974-2.974 6.502-5.333 10.389-6.942 3.883-1.609 8.047-2.436 12.25-2.436 4.207 0 8.371 0.828 12.254 2.436 3.887 1.609 7.415 3.968 10.389 6.942 2.97 2.97 5.329 6.502 6.938 10.385 1.609 3.887 2.441 8.047 2.441 12.254 0 4.203-0.832 8.367-2.441 12.254-1.609 3.883-3.968 7.411-6.938 10.385zM159.968 511.991c0 56.96 16.891 112.642 48.537 160.004s76.625 84.275 129.25 106.073c52.625 21.798 110.531 27.502 166.399 16.389s107.183-38.542 147.46-78.819c40.277-40.278 67.708-91.594 78.818-147.461 11.115-55.866 5.41-113.773-16.388-166.398s-58.709-97.604-106.074-129.25c-47.36-31.646-103.040-48.538-160.004-48.538-76.355 0.085-149.559 30.455-203.552 84.446s-84.362 127.198-84.447 203.554z" />
<glyph unicode="&#xe93d;" glyph-name="in" d="M1023.744-64l0.256 0.040v375.558c0 183.72-39.549 325.245-254.339 325.245-103.253 0-172.538-56.661-200.829-110.379h-2.987v93.227h-203.648v-683.651h212.050v338.523c0 89.128 16.896 175.314 127.278 175.314 108.754 0 110.376-101.717 110.376-181.038v-332.84h211.843zM16.896 619.648h212.309v-683.648h-212.309v683.648zM122.965 960c-67.883 0-122.965-55.083-122.965-122.965s55.083-124.117 122.965-124.117c67.883 0 122.965 56.235 122.965 124.117-0.023 32.605-12.985 63.869-36.041 86.925s-54.319 36.018-86.925 36.041z" />
<glyph unicode="&#xe93e;" glyph-name="pinterest2" d="M511.862 618.74c-94.014 0-170.737-76.724-170.737-170.74s76.722-170.74 170.737-170.74c94.013 0 170.736 76.724 170.736 170.74s-76.722 170.74-170.736 170.74zM1023.941 448c0 70.704 0.644 140.767-3.328 211.343-3.972 81.976-22.674 154.729-82.615 214.674-60.072 60.072-132.696 78.645-214.669 82.615-70.703 3.971-140.765 3.33-211.339 3.33-70.703 0-140.764 0.64-211.339-3.33-81.974-3.971-154.726-22.671-214.669-82.615-60.071-60.073-78.643-132.698-82.614-214.674-3.971-70.704-3.33-140.767-3.33-211.343s-0.64-140.767 3.33-211.343c3.971-81.975 22.671-154.73 82.614-214.671 60.071-60.072 132.695-78.651 214.669-82.615 70.703-3.972 140.765-3.335 211.339-3.335 70.702 0 140.764-0.636 211.339 3.335 81.973 3.964 154.729 22.667 214.669 82.615 60.072 60.072 78.643 132.696 82.615 214.671 4.096 70.576 3.328 140.639 3.328 211.343zM511.862 185.293c-145.376 0-262.701 117.329-262.701 262.707s117.325 262.706 262.701 262.706c145.375 0 262.698-117.328 262.698-262.706s-117.323-262.707-262.698-262.707zM785.32 660.111c-33.938 0-61.351 27.41-61.351 61.354s27.412 61.353 61.351 61.353c33.946 0 61.352-27.41 61.352-61.353 0.015-8.060-1.565-16.043-4.645-23.491s-7.6-14.216-13.297-19.915c-5.705-5.699-12.471-10.218-19.917-13.297s-15.433-4.66-23.493-4.65z" />
<glyph unicode="&#xea93;" glyph-name="whatsapp" d="M873 811.2c-95.8 96-223.2 148.8-359 148.8-279.6 0-507.2-227.6-507.2-507.4 0-89.4 23.4-176.8 67.8-253.6l-72-263 269 70.6c74.2-40.4 157.6-61.8 242.4-61.8h0.2c0 0 0 0 0 0 279.6 0 507.4 227.6 507.4 507.4 0 135.6-52.8 263-148.6 359zM514.2 30.4v0c-75.8 0-150 20.4-214.8 58.8l-15.4 9.2-159.6-41.8 42.6 155.6-10 16c-42.4 67-64.6 144.6-64.6 224.4 0 232.6 189.2 421.8 422 421.8 112.6 0 218.6-44 298.2-123.6 79.6-79.8 123.4-185.6 123.4-298.4-0.2-232.8-189.4-422-421.8-422zM745.4 346.4c-12.6 6.4-75 37-86.6 41.2s-20 6.4-28.6-6.4c-8.4-12.6-32.8-41.2-40.2-49.8-7.4-8.4-14.8-9.6-27.4-3.2s-53.6 19.8-102 63c-37.6 33.6-63.2 75.2-70.6 87.8s-0.8 19.6 5.6 25.8c5.8 5.6 12.6 14.8 19 22.2s8.4 12.6 12.6 21.2c4.2 8.4 2.2 15.8-1 22.2s-28.6 68.8-39 94.2c-10.2 24.8-20.8 21.4-28.6 21.8-7.4 0.4-15.8 0.4-24.2 0.4s-22.2-3.2-33.8-15.8c-11.6-12.6-44.4-43.4-44.4-105.8s45.4-122.6 51.8-131.2c6.4-8.4 89.4-136.6 216.6-191.4 30.2-13 53.8-20.8 72.2-26.8 30.4-9.6 58-8.2 79.8-5 24.4 3.6 75 30.6 85.6 60.2s10.6 55 7.4 60.2c-3 5.6-11.4 8.8-24.2 15.2z" />
<glyph unicode="&#xea9d;" glyph-name="youtube" d="M1013.8 652.8c0 0-10 70.6-40.8 101.6-39 40.8-82.6 41-102.6 43.4-143.2 10.4-358.2 10.4-358.2 10.4h-0.4c0 0-215 0-358.2-10.4-20-2.4-63.6-2.6-102.6-43.4-30.8-31-40.6-101.6-40.6-101.6s-10.2-82.8-10.2-165.8v-77.6c0-82.8 10.2-165.8 10.2-165.8s10-70.6 40.6-101.6c39-40.8 90.2-39.4 113-43.8 82-7.8 348.2-10.2 348.2-10.2s215.2 0.4 358.4 10.6c20 2.4 63.6 2.6 102.6 43.4 30.8 31 40.8 101.6 40.8 101.6s10.2 82.8 10.2 165.8v77.6c-0.2 82.8-10.4 165.8-10.4 165.8zM406.2 315.2v287.8l276.6-144.4-276.6-143.4z" />
</font>
</defs>
</svg>
